Поиск

(Tango Nuevo, Gypsy, Chamber, Klezmer) 3 Leg Torso - 3 Leg Torso - 1997, FLAC (tracks+.cue), lossless

(Tango Nuevo, Gypsy, Chamber, Klezmer) 3 Leg Torso - 3 Leg Torso - 1997, FLAC (tracks+.cue), lossless
Треклист:
3 Leg Torso / 3 Leg Torso
Жанр: Tango Nuevo, Gypsy, Chamber, Klezmer
Год издания: 1997
Издатель (лейбл): 3LT Music
Номер по каталогу: 3LT CD 01
Страна: USA
Аудиокодек: FLAC (*.flac)
Тип рипа: tracks+.cue
Битрейт аудио: lossless
Продолжительность: 0:36:53
Источник (релизер): almondbrot
Наличие сканов в содержимом раздачи: нет
Треклист:
01. Baym Rebyn in Palesteena (3:38)
02. The Cat and the Rooster (3:23)
03. 3+3+3+3+2+2 (6:19)
04. The Awakened Somnambulist (4:10)
05. To The Little Radio (1:38)
06. Morrocan Jig (6:13)
07. Stolen Tango (8:37)
08. Divertissements for Performing Bears (2:56)
 
XLD log
X Lossless Decoder version 20120609 (141.0)
XLD extraction logfile from 2012-06-25 15:58:14 -0600
3 Leg Torso / 3 Leg Torso
Used drive : LITE-ON LTR-52327S (revision QS03)
Ripper mode : XLD Secure Ripper
Disable audio cache : OK for the drive with a cache less than 1375KiB
Make use of C2 pointers : NO
Read offset correction : 6
Max retry count : 20
Gap status : Analyzed, Appended (except HTOA)
TOC of the extracted CD
Track | Start | Length | Start sector | End sector
---------------------------------------------------------
1 | 00:00:00 | 03:37:50 | 0 | 16324
2 | 03:37:50 | 03:22:55 | 16325 | 31529
3 | 07:00:30 | 06:18:42 | 31530 | 59921
4 | 13:18:72 | 04:10:13 | 59922 | 78684
5 | 17:29:10 | 01:38:15 | 78685 | 86049
6 | 19:07:25 | 06:12:42 | 86050 | 113991
7 | 25:19:67 | 08:36:68 | 113992 | 152759
8 | 33:56:60 | 02:56:07 | 152760 | 165966
AccurateRip Summary
Disc not found in AccurateRip DB.
All Tracks
Album gain : -2.95 dB
Peak : 1.000000
Statistics
Read error : 0
Jitter error (maybe fixed) : 0
Retry sector count : 0
Damaged sector count : 0
Track 01
Filename : /XLD rips/3 Leg Torso - 3 Leg Torso (2003, FLAC)/01 - Baym Rebyn in Palesteena.flac
Pre-gap length : 00:02:00
Track gain : -0.29 dB
Peak : 1.000000
CRC32 hash (test run) : 8014327B
CRC32 hash : 8014327B
CRC32 hash (skip zero) : DBFF37CC
AccurateRip v1 signature : 4876080E
AccurateRip v2 signature : 82D489F9
->Track not present in AccurateRip database.
Statistics
Read error : 0
Jitter error (maybe fixed) : 0
Retry sector count : 0
Damaged sector count : 0
Track 02
Filename : /XLD rips/3 Leg Torso - 3 Leg Torso (2003, FLAC)/02 - The Cat and the Rooster.flac
Pre-gap length : 00:04:69
Track gain : -3.66 dB
Peak : 1.000000
CRC32 hash (test run) : A93C3597
CRC32 hash : A93C3597
CRC32 hash (skip zero) : DAF3769E
AccurateRip v1 signature : 99E13270
AccurateRip v2 signature : 6D1E5DB9
->Track not present in AccurateRip database.
Statistics
Read error : 0
Jitter error (maybe fixed) : 0
Retry sector count : 0
Damaged sector count : 0
Track 03
Filename : /XLD rips/3 Leg Torso - 3 Leg Torso (2003, FLAC)/03 - 3+3+3+3+2+2.flac
Pre-gap length : 00:04:35
Track gain : -2.31 dB
Peak : 0.946625
CRC32 hash (test run) : DC23E351
CRC32 hash : DC23E351
CRC32 hash (skip zero) : 12ACB3C5
AccurateRip v1 signature : 8A275817
AccurateRip v2 signature : 3E10A970
->Track not present in AccurateRip database.
Statistics
Read error : 0
Jitter error (maybe fixed) : 0
Retry sector count : 0
Damaged sector count : 0
Track 04
Filename : /XLD rips/3 Leg Torso - 3 Leg Torso (2003, FLAC)/04 - The Awakened Somnambulist.flac
Pre-gap length : 00:04:07
Track gain : 1.10 dB
Peak : 0.720581
CRC32 hash (test run) : 35A5705D
CRC32 hash : 35A5705D
CRC32 hash (skip zero) : 26FFEEE9
AccurateRip v1 signature : B1923B84
AccurateRip v2 signature : 030AB764
->Track not present in AccurateRip database.
Statistics
Read error : 0
Jitter error (maybe fixed) : 0
Retry sector count : 0
Damaged sector count : 0
Track 05
Filename : /XLD rips/3 Leg Torso - 3 Leg Torso (2003, FLAC)/05 - To The Little Radio.flac
Pre-gap length : 00:03:34
Track gain : -2.08 dB
Peak : 0.905090
CRC32 hash (test run) : 2F75A484
CRC32 hash : 2F75A484
CRC32 hash (skip zero) : DFB35450
AccurateRip v1 signature : 88BFB552
AccurateRip v2 signature : 175FEF6F
->Track not present in AccurateRip database.
Statistics
Read error : 0
Jitter error (maybe fixed) : 0
Retry sector count : 0
Damaged sector count : 0
Track 06
Filename : /XLD rips/3 Leg Torso - 3 Leg Torso (2003, FLAC)/06 - Morrocan Jig.flac
Pre-gap length : 00:05:02
Track gain : -4.23 dB
Peak : 1.000000
CRC32 hash (test run) : 71385D31
CRC32 hash : 71385D31
CRC32 hash (skip zero) : 498FF96C
AccurateRip v1 signature : 2AB73D29
AccurateRip v2 signature : 9B3F55F6
->Track not present in AccurateRip database.
Statistics
Read error : 0
Jitter error (maybe fixed) : 0
Retry sector count : 0
Damaged sector count : 0
Track 07
Filename : /XLD rips/3 Leg Torso - 3 Leg Torso (2003, FLAC)/07 - Stolen Tango.flac
Pre-gap length : 00:05:44
Track gain : -3.71 dB
Peak : 1.000000
CRC32 hash (test run) : 0C18D5C4
CRC32 hash : 0C18D5C4
CRC32 hash (skip zero) : F84379A9
AccurateRip v1 signature : BBDD0F39
AccurateRip v2 signature : DD6F4DF0
->Track not present in AccurateRip database.
Statistics
Read error : 0
Jitter error (maybe fixed) : 0
Retry sector count : 0
Damaged sector count : 0
Track 08
Filename : /XLD rips/3 Leg Torso - 3 Leg Torso (2003, FLAC)/08 - Divertissements for Performing Bears.flac
Pre-gap length : 00:04:64
Track gain : -1.55 dB
Peak : 0.999969
CRC32 hash (test run) : 63AE2307
CRC32 hash : 63AE2307
CRC32 hash (skip zero) : 5C3E512D
AccurateRip v1 signature : 47D52C6D
AccurateRip v2 signature : E49E8B31
->Track not present in AccurateRip database.
Statistics
Read error : 0
Jitter error (maybe fixed) : 0
Retry sector count : 0
Damaged sector count : 0
No errors occurred
End of status report
 
auCDtect's log
-----------------------
DON'T MODIFY THIS FILE
-----------------------
PERFORMER: auCDtect Task Manager, ver. 1.5.1RC3 build 1.5.1.4
Copyright (c) 2008-2010 y-soft. All rights reserved
http://y-soft.org
ANALYZER: auCDtect: CD records authenticity detector, version 0.8.2
Copyright (c) 2004 Oleg Berngardt. All rights reserved.
Copyright (c) 2004 Alexander Djourik. All rights reserved.
FILE: 08 - Divertissements for Performing Bears.flac
Size: 15728072 Hash: D742FF7A07B4A37C5BEFB103D87E6455 Accuracy: -m0
Conclusion: CDDA 100%
Signature: 8232607177664221C19D4FBD8EC0E9196F18AB38
FILE: 07 - Stolen Tango.flac
Size: 46115966 Hash: E57F15112D625FF35EF6FF274AA2D052 Accuracy: -m0
Conclusion: CDDA 100%
Signature: 6AC8205FA8977234200462B9A788699E2D5C26FD
FILE: 06 - Morrocan Jig.flac
Size: 38649795 Hash: CA8D7F6175FA40C660BBC26D7368D4B0 Accuracy: -m0
Conclusion: CDDA 100%
Signature: 4B7B931736B66F8394EC372D6E06665DD3839748
FILE: 05 - To The Little Radio.flac
Size: 7581570 Hash: 155517F98B5C200C32F57E4D6D024C33 Accuracy: -m0
Conclusion: CDDA 100%
Signature: 65B8A5D0719D6EE1C459EA06E278886DB315F546
FILE: 04 - The Awakened Somnambulist.flac
Size: 19710667 Hash: 4629B9F6354A843BE5407FC593C0147C Accuracy: -m0
Conclusion: CDDA 99%
Signature: 51BB1B2B6AC6E882C6EDCBF9C1BFF8B5010F5A19
FILE: 03 - 3+3+3+3+2+2.flac
Size: 33258713 Hash: 0506FD3D600FB9F941FDED18309FB71B Accuracy: -m0
Conclusion: CDDA 100%
Signature: 731D3F7642458FC94A4D5A1AB9E8D98492CFC627
FILE: 02 - The Cat and the Rooster.flac
Size: 16515458 Hash: A657FE56F47CD2EFF86770A8663A70F5 Accuracy: -m0
Conclusion: CDDA 100%
Signature: 37D064175818E4D2228E38073D6054A7AC65F9DA
FILE: 01 - Baym Rebyn in Palesteena.flac
Size: 20387357 Hash: 2037950B16104DEC673C35061338515C Accuracy: -m0
Conclusion: CDDA 100%
Signature: 02C0BDD1DAD2F371DEC5818E272DAAA21669063B
 
.cue
TITLE "3 Leg Torso"
PERFORMER "3 Leg Torso"
REM GENRE "Classical"
REM DATE "2003"
REM DISCNUMBER 1
REM TOTALDISCS 1
REM DISCID 4A08A408
REM REPLAYGAIN_ALBUM_GAIN -2.95 dB
REM REPLAYGAIN_ALBUM_PEAK 1.000000
FILE "01 - Baym Rebyn in Palesteena.flac" WAVE
TRACK 01 AUDIO
TITLE "Baym Rebyn in Palesteena"
REM REPLAYGAIN_TRACK_GAIN -0.29 dB
REM REPLAYGAIN_TRACK_PEAK 1.000000
INDEX 01 00:00:00
TRACK 02 AUDIO
TITLE "The Cat and the Rooster"
REM REPLAYGAIN_TRACK_GAIN -3.66 dB
REM REPLAYGAIN_TRACK_PEAK 1.000000
INDEX 00 03:32:56
FILE "02 - The Cat and the Rooster.flac" WAVE
INDEX 01 00:00:00
TRACK 03 AUDIO
TITLE "3+3+3+3+2+2"
REM REPLAYGAIN_TRACK_GAIN -2.31 dB
REM REPLAYGAIN_TRACK_PEAK 0.946625
INDEX 00 03:18:20
FILE "03 - 3+3+3+3+2+2.flac" WAVE
INDEX 01 00:00:00
TRACK 04 AUDIO
TITLE "The Awakened Somnambulist"
REM REPLAYGAIN_TRACK_GAIN 1.10 dB
REM REPLAYGAIN_TRACK_PEAK 0.720581
INDEX 00 06:14:35
FILE "04 - The Awakened Somnambulist.flac" WAVE
INDEX 01 00:00:00
TRACK 05 AUDIO
TITLE "To The Little Radio"
REM REPLAYGAIN_TRACK_GAIN -2.08 dB
REM REPLAYGAIN_TRACK_PEAK 0.905090
INDEX 00 04:06:54
FILE "05 - To The Little Radio.flac" WAVE
INDEX 01 00:00:00
TRACK 06 AUDIO
TITLE "Morrocan Jig"
REM REPLAYGAIN_TRACK_GAIN -4.23 dB
REM REPLAYGAIN_TRACK_PEAK 1.000000
INDEX 00 01:33:13
FILE "06 - Morrocan Jig.flac" WAVE
INDEX 01 00:00:00
TRACK 07 AUDIO
TITLE "Stolen Tango"
REM REPLAYGAIN_TRACK_GAIN -3.71 dB
REM REPLAYGAIN_TRACK_PEAK 1.000000
INDEX 00 06:06:73
FILE "07 - Stolen Tango.flac" WAVE
INDEX 01 00:00:00
TRACK 08 AUDIO
TITLE "Divertissements for Performing Bears"
REM REPLAYGAIN_TRACK_GAIN -1.55 dB
REM REPLAYGAIN_TRACK_PEAK 0.999969
INDEX 00 08:32:04
FILE "08 - Divertissements for Performing Bears.flac" WAVE
INDEX 01 00:00:00
 
Об альбоме (сборнике)
An Eastern European flavor and improvisation serve as the basis for the 3 Leg Torso modern chamber ensemble approach. The trio that creates this instrumental music, often with a "nuevo tango" rhythm, plays violin, cello, and accordion. The recording also includes percussion. Leading the group is violinist Bela Balogh, a first-generation American and third-generation Hungarian musician. The trio's approach includes the tango transformation of Astor Piazzolla with a non-traditional approach to classical and folk instrumentation. In 3 Leg Torso's music, insistent and urgent staccato dance rhythms, quickly paced, underlie Eastern European tone coloring. Suggesting the Balkan sounds are legato passages on the violin and accordion. This contrast and complexity keep the group's tunes fresh and interesting.amg
 
Состав
Courtney Von Drehle - Accordion
Gabe Leavitt - Cello
Béla Balogh - Violin
04:23
365
Нет комментариев. Ваш будет первым!