Поиск

(Tango Nuevo) Gabriela Anders - Last Tango in Rio - 2004, FLAC (image+.cue) lossless

(Tango Nuevo) Gabriela Anders - Last Tango in Rio - 2004, FLAC (image+.cue) lossless
Gabriela Anders / Last Tango in Rio
Жанр: Tango Nuevo
Страна-производитель диска: USA
Год издания диска: 2004
Издатель (лейбл): Narada
Номер по каталогу: 72438-64191-2-5
Страна: Argentine
Аудио кодек: FLAC (*.flac)
Тип рипа: image+.cue
Битрейт аудио: lossless
Продолжительность: 0:40:28:13
Источник (релизер): CD личный
Наличие сканов в содержимом раздачи: нет
Треклист:
01. You Go To My Head
02. Abracadabra
03. Love Is Here To Stay
04. God Bless The Child
05. Embrace Me
06. The Buenos Aires Mix
07. Body And Soul
08. All Your Love
09. Meant To Be
10. 'Til The End Of Time
 
Лог создания рипа
Exact Audio Copy V0.99 prebeta 5 from 4. May 2009
Отчёт EAC об извлечении, выполненном 23. декабря 2010, 23:17
Gabriela Anders / Last Tango in Rio
Дисковод: SlimtypeDVD A DS8A2S Adapter: 1 ID: 0
Режим чтения : Достоверность
Использование точного потока : Да
Отключение кэша аудио : Да
Использование указателей C2 : Нет
Коррекция смещения при чтении : 6
Способность читать области Lead-in и Lead-out : Нет
Заполнение пропущенных сэмплов тишиной : Да
Удаление блоков с тишиной в начале и конце : Нет
При вычислениях CRC использовались нулевые сэмплы : Да
Интерфейс : Встроенный Win32-интерфейс для Win NT/2000
Выходной формат : Пользовательский кодировщик
Выбранный битрейт : 768 kBit/s
Качество : Высокий
Добавление ID3-тэга : Нет
Утилита сжатия : C:\Program Files\Exact Audio Copy\FLAC\FLAC.EXE
Дополнительные параметры : -6 -V -T "ARTIST=%a" -T "TITLE=%t" -T "ALBUM=%g" -T "DATE=%y" -T "TRACKNUMBER=%n" -T "GENRE=%m" -T "COMMENT=%e" %s -o %d
TOC извлечённого CD
Трек | Старт | Длительность | Начальный сектор | Конечный сектор
---------------------------------------------------------------------
1 | 0:00.00 | 3:54.55 | 0 | 17604
2 | 3:54.55 | 5:32.10 | 17605 | 42514
3 | 9:26.65 | 3:23.05 | 42515 | 57744
4 | 12:49.70 | 4:27.18 | 57745 | 77787
5 | 17:17.13 | 4:33.32 | 77788 | 98294
6 | 21:50.45 | 4:06.60 | 98295 | 116804
7 | 25:57.30 | 3:18.28 | 116805 | 131682
8 | 29:15.58 | 2:47.67 | 131683 | 144274
9 | 32:03.50 | 4:51.53 | 144275 | 166152
10 | 36:55.28 | 3:32.60 | 166153 | 182112
Характеристики диапазона извлечения и сообщения об ошибках
Выбранный диапазон
Имя файла D:\EAC\Gabriela Anders - Last Tango in Rio (2004 Narada) (Lossless)\Gabriela Anders - Last Tango in Rio.wav
Пиковый уровень 99.8 %
Качество диапазона 100.0 %
CRC теста B4D7F0CC
CRC копии B4D7F0CC
Копирование... OK
Ошибок не произошло
AccurateRip: сводка
Трек 1 точное извлечение (доверие 3) [C52698CB]
Трек 2 точное извлечение (доверие 3) [E1F8D49A]
Трек 3 точное извлечение (доверие 3) [DE8C9C19]
Трек 4 точное извлечение (доверие 3) [625D7ABE]
Трек 5 точное извлечение (доверие 3) [A599D543]
Трек 6 точное извлечение (доверие 3) [5202B682]
Трек 7 точное извлечение (доверие 3) [7129E417]
Трек 8 точное извлечение (доверие 3) [2E33A20E]
Трек 9 точное извлечение (доверие 3) [8ADB042B]
Трек 10 точное извлечение (доверие 3) [B74D750C]
Все треки извлечены точно
Конец отчёта
 
Содержание индексной карты (.CUE)
REM GENRE "Narada Jazz"
REM DATE 2004
REM DISCID 88097C0A
REM COMMENT "ExactAudioCopy v0.99pb5"
PERFORMER "Gabriela Anders"
TITLE "Last Tango in Rio"
FILE "Gabriela Anders - Last Tango in Rio.flac" WAVE
TRACK 01 AUDIO
TITLE "You Go To My Head"
PERFORMER "Gabriela Anders"
FLAGS DCP
INDEX 01 00:00:00
TRACK 02 AUDIO
TITLE "Abracadabra"
PERFORMER "Gabriela Anders"
FLAGS DCP
INDEX 00 03:53:55
INDEX 01 03:54:55
TRACK 03 AUDIO
TITLE "Love is Here to Stay"
PERFORMER "Gabriela Anders"
FLAGS DCP
INDEX 00 09:25:65
INDEX 01 09:26:65
TRACK 04 AUDIO
TITLE "God Bless The Child"
PERFORMER "Gabriela Anders"
FLAGS DCP
INDEX 00 12:48:70
INDEX 01 12:49:70
TRACK 05 AUDIO
TITLE "Embrace Me"
PERFORMER "Gabriela Anders"
FLAGS DCP
INDEX 00 17:14:13
INDEX 01 17:17:13
TRACK 06 AUDIO
TITLE "The Buenos Aires Mix"
PERFORMER "Gabriela Anders"
FLAGS DCP
INDEX 00 21:47:45
INDEX 01 21:50:45
TRACK 07 AUDIO
TITLE "Body and Soul"
PERFORMER "Gabriela Anders"
FLAGS DCP
INDEX 00 25:55:30
INDEX 01 25:57:30
TRACK 08 AUDIO
TITLE "All Your love"
PERFORMER "Gabriela Anders"
FLAGS DCP
INDEX 00 29:12:58
INDEX 01 29:15:58
TRACK 09 AUDIO
TITLE "Meant to Be"
PERFORMER "Gabriela Anders"
FLAGS DCP
INDEX 00 32:00:50
INDEX 01 32:03:50
TRACK 10 AUDIO
TITLE "'Til The End of Time"
PERFORMER "Gabriela Anders"
FLAGS DCP
INDEX 00 36:52:28
INDEX 01 36:55:28
 
Скриншот спектра частот
19:53
398
Нет комментариев. Ваш будет первым!