Поиск

(Tango, Jazz) Astor Piazzolla - The Lausanne Concert - 1989, FLAC (image+.cue), lossless

(Tango, Jazz) Astor Piazzolla - The Lausanne Concert - 1989, FLAC (image+.cue), lossless
Треклист:
Astor Piazzolla - The Lausanne Concert
Жанр: Tango, Jazz
Год выпуска диска: 1989
Аудио кодек: FLAC
Тип рипа: image+.cue
Битрейт аудио: lossless
Продолжительность: 71:58
Трэклист:
1. Tanguedia III
2. Milonga Del Angel
3. Buenos Aires Hora Cero
4. Adios Nonino
5. Mumuki
6. Contrabajisimo
7. Reality
8. Operacion Tango
9. Nuevo Tango
10. Camorra II
Сосотав:
Astor Piazzolla (bandoneon)
Horacio Malvicino (guitar)
Daniel Binelli (bandoneon)
Gerardo Gandini (piano)
Angel Ridolfi (bass)
Carlos Nozzi (violoncello)
Доп. информация: Recorded live at MAD (Moulin a Danses), Lausanne, Switzerland on November 4, 1989
Отечественное переиздание диска
 
Отчет EAC
Exact Audio Copy V0.99 prebeta 4 from 23. January 2008
Отчёт EAC об извлечении, выполненном 23. ноября 2008, 21:35
Astor Piazzolla / The Lausanne Concert
Дисковод: _NEC DVD_RW ND-4550A Adapter: 0 ID: 1
Режим чтения : Достоверность
Использование точного потока : Да
Отключение кэша аудио : Да
Использование указателей C2 : Нет
Коррекция смещения при чтении : 48
Способность читать области Lead-in и Lead-out : Нет
Заполнение пропущенных сэмплов тишиной : Да
Удаление блоков с тишиной в начале и конце : Нет
При вычислениях CRC использовались нулевые сэмплы : Да
Интерфейс : Установленный внешний ASPI-интерфейс
Выходной формат : Пользовательский кодировщик
Выбранный битрейт : 1024 kBit/s
Качество : Высокий
Добавление ID3-тэга : Нет
Утилита сжатия : E:\music\[Rip]\FLAC\flac.exe
Дополнительные параметры : -6 -V -T "ARTIST=%a" -T "TITLE=%t" -T "ALBUM=%g" -T "DATE=%y" -T "TRACKNUMBER=%n" -T "GENRE=%m" -T "COMMENT=collection georg l k." %s -o %d
TOC извлечённого CD
Трек | Старт | Длительность | Начальный сектор | Конечный сектор
---------------------------------------------------------------------
1 | 0:00.00 | 4:32.25 | 0 | 20424
2 | 4:32.25 | 6:33.17 | 20425 | 49916
3 | 11:05.42 | 5:39.60 | 49917 | 75401
4 | 16:45.27 | 8:32.08 | 75402 | 113809
5 | 25:17.35 | 10:55.40 | 113810 | 162974
6 | 36:13.00 | 10:37.60 | 162975 | 210809
7 | 46:50.60 | 11:15.62 | 210810 | 261496
8 | 58:06.47 | 10:30.13 | 261497 | 308759
9 | 68:36.60 | 3:21.60 | 308760 | 323894
Характеристики диапазона извлечения и сообщения об ошибках
Выбранный диапазон
Имя файла E:\music\Astor Piazzolla - The Lausanne Concert (1989)\Astor Piazzolla - The Lausanne Concert.wav
Пиковый уровень 100.0 %
Качество диапазона 100.0 %
CRC копии 73C496B0
Копирование... OK
Ошибок не произошло
AccurateRip: сводка
Трек 1 точное извлечение (доверие 2) [7E16C770]
Трек 2 точное извлечение (доверие 2) [528D10E3]
Трек 3 точное извлечение (доверие 2) [DAAF7E6D]
Трек 4 точное извлечение (доверие 2) [9C31A4BE]
Трек 5 точное извлечение (доверие 2) [D2D138E2]
Трек 6 точное извлечение (доверие 2) [FE874D78]
Трек 7 точное извлечение (доверие 2) [B7464FE0]
Трек 8 точное извлечение (доверие 2) [0433D72F]
Трек 9 точное извлечение (доверие 2) [78A445B1]
Все треки извлечены точно
Конец отчёта
04:31
332
Нет комментариев. Ваш будет первым!