Поиск

(Tango, Ethnic Jazz) [CD] The New Tango Orquesta - The New Tango Orquesta - 1998, FLAC (tracks+.cue), lossless

(Tango, Ethnic Jazz) [CD] The New Tango Orquesta - The New Tango Orquesta - 1998, FLAC (tracks+.cue), lossless
Треклист:
The New Tango Orquesta / The New Tango Orquesta
Жанр: Tango, Ethnic Jazz
Носитель: CD
Год издания: 1998
Издатель (лейбл): Imogena AB
Номер по каталогу: IGCD072
Страна исполнителя (группы): Sweden
Аудиокодек: FLAC (*.flac)
Тип рипа: tracks+.cue
Битрейт аудио: lossless
Продолжительность: 0;45:05.
Источник (релизер): clustert
Наличие сканов в содержимом раздачи: да
Треклист:
01. 1919 [0:04:59.30]
02. Invierno Del '96 [0:10:08.70]
03. Tango Triste [0:09:44.50]
04. Cyclo [0:06:27.20]
05. Pesadamente [0:09:13.40]
06. Tango För Trasig Docka [0:04:31.57]
 
Лог создания рипа
Exact Audio Copy V1.0 beta 3 from 29. August 2011
Отчёт EAC об извлечении, выполненном 23. марта 2016, 23:01
The New Tango Orquesta / The New Tango Orquesta
Дисковод: ASUS DRW-1814BLT Adapter: 4 ID: 0
Режим чтения : Достоверность
Использование точного потока : Да
Отключение кэша аудио : Да
Использование указателей C2 : Нет
Коррекция смещения при чтении : 6
Способность читать области Lead-in и Lead-out : Нет
Заполнение пропущенных сэмплов тишиной : Да
Удаление блоков с тишиной в начале и конце : Нет
При вычислениях CRC использовались нулевые сэмплы : Да
Интерфейс : Встроенный Win32-интерфейс для Win NT/2000
Обработка зазоров : Добавлено к предыдущему треку
Выходной формат : Пользовательский кодировщик
Выбранный битрейт : 128 kBit/s
Качество : Высокий
Добавление ID3-тега : Нет
Утилита сжатия : C:\Program Files\Exact Audio Copy\Flac\flac.exe
Дополнительные параметры : -V -8 -T "Genre=%genre%" -T "Artist=%artist%" -T "Title=%title%" -T "Album=%albumtitle%" -T "Date=%year%" -T "Tracknumber=%tracknr%" -T "Comment=EAC1.0b2 FLAC -8" %source%
TOC извлечённого CD
Трек | Старт | Длительность | Начальный сектор | Конечный сектор
---------------------------------------------------------------------
1 | 0:00.00 | 4:59.30 | 0 | 22454
2 | 4:59.30 | 10:08.70 | 22455 | 68124
3 | 15:08.25 | 9:44.50 | 68125 | 111974
4 | 24:53.00 | 6:27.20 | 111975 | 141019
5 | 31:20.20 | 9:13.40 | 141020 | 182534
6 | 40:33.60 | 4:31.57 | 182535 | 202916
Трек 1
Имя файла R:\Раздача 60\The New Tango Orquesta - 1998\01 1919 .wav
Длина предзазора 0:00:02.00
Пиковый уровень 100.0 %
Скорость извлечения 4.4 X
Качество трека 100.0 %
CRC теста 192727EE
CRC копии 192727EE
Точное извлечение (достоверность 1) [3345B98A] (AR v1)
Копирование... OK
Трек 2
Имя файла R:\Раздача 60\The New Tango Orquesta - 1998\02 Invierno Del '96 .wav
Длина предзазора 0:00:03.02
Пиковый уровень 100.0 %
Скорость извлечения 5.6 X
Качество трека 100.0 %
CRC теста 82B011F6
CRC копии 82B011F6
Точное извлечение (достоверность 1) [125688CE] (AR v1)
Копирование... OK
Трек 3
Имя файла R:\Раздача 60\The New Tango Orquesta - 1998\03 Tango Triste .wav
Длина предзазора 0:00:02.30
Пиковый уровень 91.9 %
Скорость извлечения 5.1 X
Качество трека 99.9 %
CRC теста 25C648B0
CRC копии 25C648B0
Точное извлечение (достоверность 1) [C6B41601] (AR v1)
Копирование... OK
Трек 4
Имя файла R:\Раздача 60\The New Tango Orquesta - 1998\04 Cyclo .wav
Длина предзазора 0:00:03.42
Пиковый уровень 100.0 %
Скорость извлечения 5.8 X
Качество трека 100.0 %
CRC теста 0C75243B
CRC копии 0C75243B
Точное извлечение (достоверность 1) [F2F11C1A] (AR v1)
Копирование... OK
Трек 5
Имя файла R:\Раздача 60\The New Tango Orquesta - 1998\05 Pesadamente .wav
Длина предзазора 0:00:03.22
Пиковый уровень 100.0 %
Скорость извлечения 6.4 X
Качество трека 100.0 %
CRC теста C86F2054
CRC копии C86F2054
Точное извлечение (достоверность 1) [7D7E0D01] (AR v1)
Копирование... OK
Трек 6
Имя файла R:\Раздача 60\The New Tango Orquesta - 1998\06 Tango För Trasig Docka .wav
Длина предзазора 0:00:02.65
Пиковый уровень 100.0 %
Скорость извлечения 6.4 X
Качество трека 100.0 %
CRC теста 113D151F
CRC копии 113D151F
Точное извлечение (достоверность 1) [1AD589F3] (AR v1)
Копирование... OK
Все треки извлечены точно
Ошибок не произошло
Конец отчёта
==== Контрольная сумма отчёта EB0A2924D438031D999BD2E09821FCB2348C27CE2A24096B5561835BB03E6A1B ====
 
Содержание индексной карты (.CUE)
REM GENRE Tango
REM DATE 1998
REM DISCID 440A9106
REM COMMENT "ExactAudioCopy v1.0b3"
CATALOG 0000000000000
PERFORMER "The New Tango Orquesta"
TITLE "The New Tango Orquesta"
FILE "01 1919 .wav" WAVE
TRACK 01 AUDIO
TITLE "1919"
PERFORMER "The New Tango Orquesta"
INDEX 01 00:00:00
TRACK 02 AUDIO
TITLE "Invierno Del '96"
PERFORMER "The New Tango Orquesta"
INDEX 00 04:56:28
FILE "02 Invierno Del '96 .wav" WAVE
INDEX 01 00:00:00
TRACK 03 AUDIO
TITLE "Tango Triste"
PERFORMER "The New Tango Orquesta"
INDEX 00 10:06:40
FILE "03 Tango Triste .wav" WAVE
INDEX 01 00:00:00
TRACK 04 AUDIO
TITLE "Cyclo"
PERFORMER "The New Tango Orquesta"
INDEX 00 09:41:08
FILE "04 Cyclo .wav" WAVE
INDEX 01 00:00:00
TRACK 05 AUDIO
TITLE "Pesadamente"
PERFORMER "The New Tango Orquesta"
INDEX 00 06:23:73
FILE "05 Pesadamente .wav" WAVE
INDEX 01 00:00:00
TRACK 06 AUDIO
TITLE "Tango For Trasig Docka"
PERFORMER "The New Tango Orquesta"
INDEX 00 09:10:50
FILE "06 Tango For Trasig Docka .wav" WAVE
INDEX 01 00:00:00
21:06
299
Нет комментариев. Ваш будет первым!