Поиск

(Swing, Piano Jazz) Joe Bushkin - The Chronological Classics, Complete, 2 Albums (1940-1950) - 2007-2008, FLAC (tracks+.cue), lossless

(Swing, Piano Jazz) Joe Bushkin - The Chronological Classics, Complete, 2 Albums (1940-1950) - 2007-2008, FLAC (tracks+.cue), lossless
Joe   Bushkin
The Chronological Classics, Complete, 2 Albums

Жанр: Stride, Piano Jazz, Swing
Годы издания: 2007-2008
Годы записей: 1940-1950
Издатель (лейбл): Classics
Аудиокодек: FLAC (*.flac)
Тип рипа: tracks+.cue
Битрейт аудио: lossless
Продолжительность: 2:20:29
Источник: net
Наличие сканов в содержимом раздачи: да 
 
 
Joe Bushkin - 1940-1946 {The Chronological Classics, 1434} [68:26]
Rip by Mazeppa
Треклист:
01. Serenade In Thirds (2:47)
02. I Can't Get Started (2:59)
03. Blue Chips (2:56)
04. Joe's Blues (2:50)
05. In A Little Spanish Town (2:48)
06. I'll Never Be The Same (3:02)
07. Caldonia Is Gone (2:56)
08. Morgan's Blues (3:01)
09. Sweet Georgia Brown (3:12)
10. Bozay (3:08)
11. Merci Michelle (2:42)
12. Getaway Joe (3:03)
13. Black Satin Gal (3:14)
14. In A Persian Black Market (3:12)
15. Culver City Suite (2:37)
16. Pickin' At The Pic (2:46)
17. Fade Out (3:16)
18. Oh, Lady Be Good! (3:31)
19. Georgia (On My Mind) (2:54)
20. Mean To Me (2:50)
21. Indian Summer (2:51)
22. Boogie Woogie Platter (3:14)
23. Indiana (2:35)
 
 
 
Лог создания рипа
EAC extraction logfile from 9. March 2008, 22:34 for CD
Joe Bushkin / 1940-1946
Used drive  : HL-DT-STCDRW/DVD GCC4482   Adapter: 1  ID: 0
Read mode   : Secure with NO C2, accurate stream, disable cache
Read offset correction : 6
Overread into Lead-In and Lead-Out : No
Used output format : C:\Eac\Codecs\flac.exe   (User Defined Encoder)
                     320 kBit/s
                     Additional command line options : -8 -V -T "artist=%a" -T "title=%t" -T "album=%g" -T "date=%y" -T "tracknumber=%n" -T "genre=%m" -T "comment=EAC Flac 1.1.2 -8" %s
Other options      :
    Fill up missing offset samples with silence : Yes
    Delete leading and trailing silent blocks : No
    Installed external ASPI interface
Track  1
     Filename C:\Documents and Settings\bushkin\01 - Serenade In Thirds.wav
     Pre-gap length  0:00:02.00
     Peak level 86.6 %
     Track quality 99.9 %
     Test CRC A8DF2CF6
     Copy CRC A8DF2CF6
     Copy OK
Track  2
     Filename C:\Documents and Settings\bushkin\02 - I Can't Get Started.wav
     Pre-gap length  0:00:02.13
     Peak level 87.5 %
     Track quality 100.0 %
     Test CRC 18871BA8
     Copy CRC 18871BA8
     Copy OK
Track  3
     Filename C:\Documents and Settings\bushkin\03 - Blue Chips.wav
     Pre-gap length  0:00:02.13
     Peak level 89.0 %
     Track quality 100.0 %
     Test CRC 6713AC3F
     Copy CRC 6713AC3F
     Copy OK
Track  4
     Filename C:\Documents and Settings\bushkin\04 - Joe's Blues.wav
     Pre-gap length  0:00:02.13
     Peak level 89.9 %
     Track quality 100.0 %
     Test CRC 221AA937
     Copy CRC 221AA937
     Copy OK
Track  5
     Filename C:\Documents and Settings\bushkin\05 - In A Little Spanish Town.wav
     Pre-gap length  0:00:02.13
     Peak level 86.8 %
     Track quality 100.0 %
     Test CRC 16987040
     Copy CRC 16987040
     Copy OK
Track  6
     Filename C:\Documents and Settings\bushkin\06 - I'll Never Be The Same.wav
     Pre-gap length  0:00:02.13
     Peak level 93.2 %
     Track quality 100.0 %
     Test CRC 929580CA
     Copy CRC 929580CA
     Copy OK
Track  7
     Filename C:\Documents and Settings\bushkin\07 - Caldonia Is Gone.wav
     Pre-gap length  0:00:02.13
     Peak level 96.8 %
     Track quality 100.0 %
     Test CRC CFDC5AE7
     Copy CRC CFDC5AE7
     Copy OK
Track  8
     Filename C:\Documents and Settings\bushkin\08 - Morgan's Blues.wav
     Pre-gap length  0:00:02.13
     Peak level 100.0 %
     Track quality 100.0 %
     Test CRC 82E299CB
     Copy CRC 82E299CB
     Copy OK
Track  9
     Filename C:\Documents and Settings\bushkin\09 - Sweet Georgia Brown.wav
     Pre-gap length  0:00:02.13
     Peak level 93.7 %
     Track quality 100.0 %
     Test CRC DDFE7C5B
     Copy CRC DDFE7C5B
     Copy OK
Track 10
     Filename C:\Documents and Settings\bushkin\10 - Bozay.wav
     Pre-gap length  0:00:02.13
     Peak level 63.5 %
     Track quality 100.0 %
     Test CRC 890B968E
     Copy CRC 890B968E
     Copy OK
Track 11
     Filename C:\Documents and Settings\bushkin\11 - Merci Michelle.wav
     Pre-gap length  0:00:02.13
     Peak level 100.0 %
     Track quality 100.0 %
     Test CRC E448730B
     Copy CRC E448730B
     Copy OK
Track 12
     Filename C:\Documents and Settings\bushkin\12 - Getaway Joe.wav
     Pre-gap length  0:00:02.13
     Peak level 100.0 %
     Track quality 100.0 %
     Test CRC 7E91BEA9
     Copy CRC 7E91BEA9
     Copy OK
Track 13
     Filename C:\Documents and Settings\bushkin\13 - Black Satin Gal.wav
     Pre-gap length  0:00:02.13
     Peak level 100.0 %
     Track quality 100.0 %
     Test CRC C0260E9C
     Copy CRC C0260E9C
     Copy OK
Track 14
     Filename C:\Documents and Settings\bushkin\14 - In A Persian Black Market.wav
     Pre-gap length  0:00:02.13
     Peak level 100.0 %
     Track quality 100.0 %
     Test CRC DF1F22E3
     Copy CRC DF1F22E3
     Copy OK
Track 15
     Filename C:\Documents and Settings\bushkin\15 - Culver City Suite.wav
     Pre-gap length  0:00:02.13
     Peak level 100.0 %
     Track quality 99.9 %
     Test CRC 1F4F72F7
     Copy CRC 1F4F72F7
     Copy OK
Track 16
     Filename C:\Documents and Settings\bushkin\16 - Pickin' At The Pic.wav
     Pre-gap length  0:00:02.13
     Peak level 100.0 %
     Track quality 100.0 %
     Test CRC 24749F19
     Copy CRC 24749F19
     Copy OK
Track 17
     Filename C:\Documents and Settings\bushkin\17 - Fade Out.wav
     Pre-gap length  0:00:02.13
     Peak level 100.0 %
     Track quality 100.0 %
     Test CRC B20ECA22
     Copy CRC B20ECA22
     Copy OK
Track 18
     Filename C:\Documents and Settings\bushkin\18 - Oh, Lady Be Good!.wav
     Pre-gap length  0:00:02.13
     Peak level 100.0 %
     Track quality 100.0 %
     Test CRC 04FC6ACF
     Copy CRC 04FC6ACF
     Copy OK
Track 19
     Filename C:\Documents and Settings\bushkin\19 - Georgia (On My Mind).wav
     Pre-gap length  0:00:02.13
     Peak level 100.0 %
     Track quality 100.0 %
     Test CRC 3EA46107
     Copy CRC 3EA46107
     Copy OK
Track 20
     Filename C:\Documents and Settings\bushkin\20 - Mean To Me.wav
     Pre-gap length  0:00:02.13
     Peak level 100.0 %
     Track quality 100.0 %
     Test CRC 64C5A003
     Copy CRC 64C5A003
     Copy OK
Track 21
     Filename C:\Documents and Settings\bushkin\21 - Indian Summer.wav
     Pre-gap length  0:00:02.13
     Peak level 80.2 %
     Track quality 100.0 %
     Test CRC 7359996F
     Copy CRC 7359996F
     Copy OK
Track 22
     Filename C:\Documents and Settings\bushkin\22 - Boogie Woogie Platter.wav
     Pre-gap length  0:00:02.13
     Peak level 86.5 %
     Track quality 100.0 %
     Test CRC 4E6D539E
     Copy CRC 4E6D539E
     Copy OK
Track 23
     Filename C:\Documents and Settings\bushkin\23 - Indiana.wav
     Pre-gap length  0:00:02.13
     Peak level 88.5 %
     Track quality 100.0 %
     Test CRC 8510031F
     Copy CRC 8510031F
     Copy OK
No errors occured
End of status report
 
 
Содержание индексной карты (.CUE)
REM GENRE Gazz
REM DATE 2007
REM DISCID 42100917
REM COMMENT "ExactAudioCopy v0.95b4"
PERFORMER "Joe Bushkin"
TITLE "1940-1946 {Chronological Classics, 1434}"
FILE "01. Serenade In Thirds.flac" WAVE
  TRACK 01 AUDIO
    TITLE "Serenade In Thirds"
    PERFORMER "Joe Bushkin"
    INDEX 01 00:00:00
  TRACK 02 AUDIO
    TITLE "I Can't Get Started"
    PERFORMER "Joe Bushkin"
    INDEX 00 02:45:17
FILE "02. I Can't Get Started.flac" WAVE
    INDEX 01 00:00:00
  TRACK 03 AUDIO
    TITLE "Blue Chips"
    PERFORMER "Joe Bushkin"
    INDEX 00 02:57:04
FILE "03. Blue Chips.flac" WAVE
    INDEX 01 00:00:00
  TRACK 04 AUDIO
    TITLE "Joe's Blues"
    PERFORMER "Joe Bushkin"
    INDEX 00 02:53:40
FILE "04. Joe's Blues.flac" WAVE
    INDEX 01 00:00:00
  TRACK 05 AUDIO
    TITLE "In A Little Spanish Town"
    PERFORMER "Joe Bushkin"
    INDEX 00 02:47:50
FILE "05. In A Little Spanish Town.flac" WAVE
    INDEX 01 00:00:00
  TRACK 06 AUDIO
    TITLE "I'll Never Be The Same"
    PERFORMER "Joe Bushkin"
    INDEX 00 02:45:53
FILE "06. I'll Never Be The Same.flac" WAVE
    INDEX 01 00:00:00
  TRACK 07 AUDIO
    TITLE "Caldonia Is Gone"
    PERFORMER "Joe Bushkin"
    INDEX 00 02:59:53
FILE "07. Caldonia Is Gone.flac" WAVE
    INDEX 01 00:00:00
  TRACK 08 AUDIO
    TITLE "Morgan's Blues"
    PERFORMER "Joe Bushkin"
    INDEX 00 02:53:74
FILE "08. Morgan's Blues.flac" WAVE
    INDEX 01 00:00:00
  TRACK 09 AUDIO
    TITLE "Sweet Georgia Brown"
    PERFORMER "Joe Bushkin"
    INDEX 00 02:58:73
FILE "09. Sweet Georgia Brown.flac" WAVE
    INDEX 01 00:00:00
  TRACK 10 AUDIO
    TITLE "Bozay"
    PERFORMER "Joe Bushkin"
    INDEX 00 03:09:71
FILE "10. Bozay.flac" WAVE
    INDEX 01 00:00:00
  TRACK 11 AUDIO
    TITLE "Merci Michelle"
    PERFORMER "Joe Bushkin"
    INDEX 00 03:05:30
FILE "11. Merci Michelle.flac" WAVE
    INDEX 01 00:00:00
  TRACK 12 AUDIO
    TITLE "Getaway Joe"
    PERFORMER "Joe Bushkin"
    INDEX 00 02:39:45
FILE "12. Getaway Joe.flac" WAVE
    INDEX 01 00:00:00
  TRACK 13 AUDIO
    TITLE "Black Satin Gal"
    PERFORMER "Joe Bushkin"
    INDEX 00 03:00:56
FILE "13. Black Satin Gal.flac" WAVE
    INDEX 01 00:00:00
  TRACK 14 AUDIO
    TITLE "In A Persian Black Market"
    PERFORMER "Joe Bushkin"
    INDEX 00 03:12:21
FILE "14. In A Persian Black Market.flac" WAVE
    INDEX 01 00:00:00
  TRACK 15 AUDIO
    TITLE "Culver City Suite"
    PERFORMER "Joe Bushkin"
    INDEX 00 03:09:36
FILE "15. Culver City Suite.flac" WAVE
    INDEX 01 00:00:00
  TRACK 16 AUDIO
    TITLE "Pickin' At The Pic"
    PERFORMER "Joe Bushkin"
    INDEX 00 02:34:70
FILE "16. Pickin' At The Pic.flac" WAVE
    INDEX 01 00:00:00
  TRACK 17 AUDIO
    TITLE "Fade Out"
    PERFORMER "Joe Bushkin"
    INDEX 00 02:44:01
FILE "17. Fade Out.flac" WAVE
    INDEX 01 00:00:00
  TRACK 18 AUDIO
    TITLE "Oh, Lady Be Good!"
    PERFORMER "Joe Bushkin"
    INDEX 00 03:14:27
FILE "18. Oh, Lady Be Good!.flac" WAVE
    INDEX 01 00:00:00
  TRACK 19 AUDIO
    TITLE "Georgia (On My Mind)"
    PERFORMER "Joe Bushkin"
    INDEX 00 03:29:07
FILE "19. Georgia (On My Mind).flac" WAVE
    INDEX 01 00:00:00
  TRACK 20 AUDIO
    TITLE "Mean To Me"
    PERFORMER "Joe Bushkin"
    INDEX 00 02:52:25
FILE "20. Mean To Me.flac" WAVE
    INDEX 01 00:00:00
  TRACK 21 AUDIO
    TITLE "Indian Summer"
    PERFORMER "Joe Bushkin"
    INDEX 00 02:48:02
FILE "21. Indian Summer.flac" WAVE
    INDEX 01 00:00:00
  TRACK 22 AUDIO
    TITLE "Boogie Woogie Platter"
    PERFORMER "Joe Bushkin"
    INDEX 00 02:49:02
FILE "22. Boogie Woogie Platter.flac" WAVE
    INDEX 01 00:00:00
  TRACK 23 AUDIO
    TITLE "Indiana"
    PERFORMER "Joe Bushkin"
    INDEX 00 03:12:23
FILE "23. Indiana.flac" WAVE
    INDEX 01 00:00:00
 
 
Joe Bushkin - 1947-1950 {The Chronological Classics, 1459} [72:03]
Rip by flydguzmon
Треклист:
01. Chicago (2:49)
02. 12th Street Rag (3:02)
03. Edgewater Beach (2:51)
04. Doggin' The Gutter (2:48)
05. New Orleans Butterfly (3:15)
06. Hoity-Hoity (2:44)
07. The Song Is Ended (5:16)
08. Sweet Georgia Brown (5:19)
09. I May Be Wrong (3:03)
10. You Do Something To Me (2:58)
11. Soft Lights And Sweet Music (1:39)
12. Soft Lights And Sweet Music (2:31)
13. Indiana - Part 1 (2:47)
14. Indiana - Part 2 (2:24)
15. I Can't Get Started (2:50)
16. It Never Entered My Mind (3:09)
17. Oh! Look At Me Now (2:52)
18. So In Love (2:28)
19. I Love A Piano (2:30)
20. If I Knew You Were There (3:05)
21. One For The Road (3:03)
22. But Not For Me (3:09)
23. Dancing On The Ceiling (2:52)
24. Stompin' At The Savoy (2:38)
 
 
 
Лог создания рипа
Exact Audio Copy V1.0 beta 3 from 29. August 2011
EAC extraction logfile from 12. December 2011, 2:37
Joe Bushkin / 1947-1950
Used drive  : HL-DT-STDVDRAM GT20N   Adapter: 2  ID: 0
Read mode               : Secure
Utilize accurate stream : Yes
Defeat audio cache      : Yes
Make use of C2 pointers : No
Read offset correction                      : 667
Overread into Lead-In and Lead-Out          : No
Fill up missing offset samples with silence : Yes
Delete leading and trailing silent blocks   : No
Null samples used in CRC calculations       : Yes
Used interface                              : Native Win32 interface for Win NT & 2000
Gap handling                                : Appended to previous track
Used output format              : User Defined Encoder
Selected bitrate                : 1024 kBit/s
Quality                         : High
Add ID3 tag                     : No
Command line compressor         : C:\Program Files (x86)\Exact Audio Copy\Flac\flac.exe
Additional command line options : -8 -V -T "ARTIST=%artist%" -T "TITLE=%title%" -T "ALBUM=%albumtitle%" -T "DATE=%year%" -T "TRACKNUMBER=%tracknr%" -T "GENRE=%genre%" -T "PERFORMER=%albuminterpret%" -T "COMPOSER=%composer%" %haslyrics%--tag-from-file=LYRICS="%lyricsfile%"%haslyrics% -T "ALBUMARTIST=%albumartist%" -T "DISCNUMBER=%cdnumber%" -T "TOTALDISCS=%totalcds%" -T "TOTALTRACKS=%numtracks%" -T "COMMENT=%comment%" %source% -o %dest%
TOC of the extracted CD
     Track |   Start  |  Length  | Start sector | End sector
    ---------------------------------------------------------
        1  |  0:00.00 |  2:48.55 |         0    |    12654
        2  |  2:48.55 |  3:02.11 |     12655    |    26315
        3  |  5:50.66 |  2:50.46 |     26316    |    39111
        4  |  8:41.37 |  2:48.07 |     39112    |    51718
        5  | 11:29.44 |  3:14.72 |     51719    |    66340
        6  | 14:44.41 |  2:43.58 |     66341    |    78623
        7  | 17:28.24 |  5:16.22 |     78624    |   102345
        8  | 22:44.46 |  5:18.67 |    102346    |   126262
        9  | 28:03.38 |  3:03.05 |    126263    |   139992
       10  | 31:06.43 |  2:57.74 |    139993    |   153341
       11  | 34:04.42 |  1:39.29 |    153342    |   160795
       12  | 35:43.71 |  2:31.30 |    160796    |   172150
       13  | 38:15.26 |  2:47.00 |    172151    |   184675
       14  | 41:02.26 |  2:24.13 |    184676    |   195488
       15  | 43:26.39 |  2:50.37 |    195489    |   208275
       16  | 46:17.01 |  3:09.10 |    208276    |   222460
       17  | 49:26.11 |  2:51.56 |    222461    |   235341
       18  | 52:17.67 |  2:28.02 |    235342    |   246443
       19  | 54:45.69 |  2:30.34 |    246444    |   257727
       20  | 57:16.28 |  3:04.38 |    257728    |   271565
       21  | 60:20.66 |  3:02.61 |    271566    |   285276
       22  | 63:23.52 |  3:09.09 |    285277    |   299460
       23  | 66:32.61 |  2:52.16 |    299461    |   312376
       24  | 69:25.02 |  2:38.05 |    312377    |   324231
Track  1
     Filename E:\JoeBuskin1947-1950_1459\01 - Joe Bushkin And His Rhythm - Chicago.wav
     Pre-gap length  0:00:02.00
     Peak level 99.2 %
     Extraction speed 2.3 X
     Track quality 100.0 %
     Test CRC A2061184
     Copy CRC A2061184
     Accurately ripped (confidence 3)  [0E29056A]  (AR v1)
     Copy OK
Track  2
     Filename E:\JoeBuskin1947-1950_1459\02 - Joe Bushkin And His Rhythm - 12th Street Rag.wav
     Pre-gap length  0:00:02.13
     Peak level 99.2 %
     Extraction speed 2.4 X
     Track quality 100.0 %
     Test CRC 6742AD64
     Copy CRC 6742AD64
     Accurately ripped (confidence 3)  [FF532D25]  (AR v1)
     Copy OK
Track  3
     Filename E:\JoeBuskin1947-1950_1459\03 - Joe Bushkin And His Rhythm - Edgewater Beach.wav
     Pre-gap length  0:00:02.13
     Peak level 98.8 %
     Extraction speed 1.7 X
     Track quality 99.9 %
     Test CRC BE3FE40C
     Copy CRC BE3FE40C
     Accurately ripped (confidence 3)  [11EFFF44]  (AR v1)
     Copy OK
Track  4
     Filename E:\JoeBuskin1947-1950_1459\04 - Joe Bushkin And His Rhythm - Doggin' The Gutter.wav
     Pre-gap length  0:00:02.13
     Peak level 98.8 %
     Extraction speed 1.4 X
     Track quality 100.0 %
     Test CRC 4A013FBC
     Copy CRC 4A013FBC
     Accurately ripped (confidence 3)  [8C822EAA]  (AR v1)
     Copy OK
Track  5
     Filename E:\JoeBuskin1947-1950_1459\05 - Joe Bushkin And His Rhythm - New Orleans Butterfly.wav
     Pre-gap length  0:00:02.13
     Peak level 98.8 %
     Extraction speed 1.5 X
     Track quality 100.0 %
     Test CRC 848961B8
     Copy CRC 848961B8
     Accurately ripped (confidence 3)  [A0BF5A7F]  (AR v1)
     Copy OK
Track  6
     Filename E:\JoeBuskin1947-1950_1459\06 - Joe Bushkin And His Rhythm - Hoity-Hoity.wav
     Pre-gap length  0:00:02.13
     Peak level 98.8 %
     Extraction speed 1.5 X
     Track quality 100.0 %
     Test CRC 7BB4A53B
     Copy CRC 7BB4A53B
     Accurately ripped (confidence 3)  [D446821C]  (AR v1)
     Copy OK
Track  7
     Filename E:\JoeBuskin1947-1950_1459\07 - Joe Bushkin And His Orchestra - The Song Is Ended.wav
     Pre-gap length  0:00:02.13
     Peak level 99.6 %
     Extraction speed 1.8 X
     Track quality 100.0 %
     Test CRC 1BDBFD44
     Copy CRC 1BDBFD44
     Accurately ripped (confidence 3)  [5F92BA69]  (AR v1)
     Copy OK
Track  8
     Filename E:\JoeBuskin1947-1950_1459\08 - Joe Bushkin Quartet - Sweet Georgia Brown.wav
     Pre-gap length  0:00:02.13
     Peak level 98.8 %
     Extraction speed 1.9 X
     Track quality 100.0 %
     Test CRC 09D76BC1
     Copy CRC 09D76BC1
     Accurately ripped (confidence 3)  [B75A5DA4]  (AR v1)
     Copy OK
Track  9
     Filename E:\JoeBuskin1947-1950_1459\09 - Joe Bushkin Group - I May Be Wrong.wav
     Pre-gap length  0:00:02.13
     Peak level 98.8 %
     Extraction speed 1.8 X
     Track quality 100.0 %
     Test CRC A15720A8
     Copy CRC A15720A8
     Accurately ripped (confidence 3)  [1F344093]  (AR v1)
     Copy OK
Track 10
     Filename E:\JoeBuskin1947-1950_1459\10 - Bushkin & Hackett - You Do Something To Me.wav
     Pre-gap length  0:00:02.13
     Peak level 98.8 %
     Extraction speed 1.9 X
     Track quality 100.0 %
     Test CRC A6A41355
     Copy CRC A6A41355
     Accurately ripped (confidence 3)  [0B94C2D9]  (AR v1)
     Copy OK
Track 11
     Filename E:\JoeBuskin1947-1950_1459\11 - Bushkin & Hackett - Soft Lights And Sweet Music.wav
     Pre-gap length  0:00:02.13
     Peak level 98.8 %
     Extraction speed 1.7 X
     Track quality 100.0 %
     Test CRC D9818E1D
     Copy CRC D9818E1D
     Accurately ripped (confidence 3)  [019A84D6]  (AR v1)
     Copy OK
Track 12
     Filename E:\JoeBuskin1947-1950_1459\12 - Joe Bushkin's Piano Playhouse - Soft Lights And Sweet Music.wav
     Pre-gap length  0:00:02.13
     Peak level 98.8 %
     Extraction speed 1.6 X
     Track quality 99.9 %
     Test CRC 4E7407E0
     Copy CRC 4E7407E0
     Accurately ripped (confidence 3)  [3BCFA596]  (AR v1)
     Copy OK
Track 13
     Filename E:\JoeBuskin1947-1950_1459\13 - Joe Bushkin's Piano Playhouse - Indiana - Part 1.wav
     Pre-gap length  0:00:02.13
     Peak level 98.8 %
     Extraction speed 1.7 X
     Track quality 99.9 %
     Test CRC CEA271C3
     Copy CRC CEA271C3
     Accurately ripped (confidence 3)  [11C19B61]  (AR v1)
     Copy OK
Track 14
     Filename E:\JoeBuskin1947-1950_1459\14 - Joe Bushkin's Piano Playhouse - Indiana - Part 2.wav
     Peak level 98.8 %
     Extraction speed 2.0 X
     Track quality 100.0 %
     Test CRC 305A796D
     Copy CRC 305A796D
     Accurately ripped (confidence 3)  [56F8F62F]  (AR v1)
     Copy OK
Track 15
     Filename E:\JoeBuskin1947-1950_1459\15 - Joe Bushkin Trio - I Can't Get Started.wav
     Pre-gap length  0:00:02.13
     Peak level 98.8 %
     Extraction speed 2.1 X
     Track quality 100.0 %
     Test CRC D2FCA99B
     Copy CRC D2FCA99B
     Accurately ripped (confidence 3)  [947B2A20]  (AR v1)
     Copy OK
Track 16
     Filename E:\JoeBuskin1947-1950_1459\16 - Joe Bushkin Trio - It Never Entered My Mind.wav
     Pre-gap length  0:00:02.13
     Peak level 98.8 %
     Extraction speed 2.1 X
     Track quality 100.0 %
     Test CRC 721A2EE0
     Copy CRC 721A2EE0
     Accurately ripped (confidence 3)  [E5FAA98A]  (AR v1)
     Copy OK
Track 17
     Filename E:\JoeBuskin1947-1950_1459\17 - Joe Bushkin Trio - Oh Look At Me Now.wav
     Pre-gap length  0:00:02.13
     Peak level 98.8 %
     Extraction speed 2.2 X
     Track quality 100.0 %
     Test CRC 80C7AF5A
     Copy CRC 80C7AF5A
     Accurately ripped (confidence 3)  [0B36381C]  (AR v1)
     Copy OK
Track 18
     Filename E:\JoeBuskin1947-1950_1459\18 - Joe Bushkin Trio - So In Love.wav
     Pre-gap length  0:00:02.13
     Peak level 98.4 %
     Extraction speed 1.8 X
     Track quality 99.9 %
     Test CRC EE88CCCC
     Copy CRC EE88CCCC
     Accurately ripped (confidence 3)  [72A3983C]  (AR v1)
     Copy OK
Track 19
     Filename E:\JoeBuskin1947-1950_1459\19 - Joe Bushkin Trio - I Love A Piano.wav
     Pre-gap length  0:00:02.13
     Peak level 98.8 %
     Extraction speed 2.2 X
     Track quality 100.0 %
     Test CRC 465D7766
     Copy CRC 465D7766
     Accurately ripped (confidence 3)  [D2026243]  (AR v1)
     Copy OK
Track 20
     Filename E:\JoeBuskin1947-1950_1459\20 - Joe Bushkin Trio - If I Knew You Were There.wav
     Pre-gap length  0:00:02.13
     Peak level 98.8 %
     Extraction speed 2.3 X
     Track quality 100.0 %
     Test CRC 0235A572
     Copy CRC 0235A572
     Accurately ripped (confidence 3)  [0A8D625D]  (AR v1)
     Copy OK
Track 21
     Filename E:\JoeBuskin1947-1950_1459\21 - Joe Bushkin Trio - One For The Road.wav
     Pre-gap length  0:00:02.13
     Peak level 98.8 %
     Extraction speed 2.3 X
     Track quality 100.0 %
     Test CRC F17C9822
     Copy CRC F17C9822
     Accurately ripped (confidence 3)  [AEFF9301]  (AR v1)
     Copy OK
Track 22
     Filename E:\JoeBuskin1947-1950_1459\22 - Joe Bushkin Trio - But Not For Me.wav
     Pre-gap length  0:00:02.13
     Peak level 99.2 %
     Extraction speed 2.4 X
     Track quality 100.0 %
     Test CRC 3150DDEA
     Copy CRC 3150DDEA
     Accurately ripped (confidence 3)  [A4827CDA]  (AR v1)
     Copy OK
Track 23
     Filename E:\JoeBuskin1947-1950_1459\23 - Joe Bushkin Trio - Dancing On The Ceiling.wav
     Pre-gap length  0:00:02.13
     Peak level 99.2 %
     Extraction speed 2.4 X
     Track quality 100.0 %
     Test CRC 5738B837
     Copy CRC 5738B837
     Accurately ripped (confidence 3)  [847CA774]  (AR v1)
     Copy OK
Track 24
     Filename E:\JoeBuskin1947-1950_1459\24 - Joe Bushkin Trio - Stompin' At The Savoy.wav
     Pre-gap length  0:00:02.13
     Peak level 99.2 %
     Extraction speed 2.1 X
     Track quality 99.9 %
     Test CRC E360E514
     Copy CRC E360E514
     Accurately ripped (confidence 3)  [821AABEA]  (AR v1)
     Copy OK
All tracks accurately ripped
No errors occurred
End of status report
---- CUETools DB Plugin V2.1.3
[CTDB TOCID: KXXMPATuwTdFBBVOKPCTbLYJVyM-] disk not present in database, Submit result: KXXMPATuwTdFBBVOKPCTbLYJVyM- has been uploaded
==== Log checksum 3FE377E72EECBFEA595295DA8BE5B0DCCACD0F0D93115C08BB5D065381CC66B8 ====
 
 
Содержание индексной карты (.CUE)
REM GENRE Jazz
REM DATE 2008
REM DISCID 8210E318
REM COMMENT "ExactAudioCopy v1.0b3"
PERFORMER "Joe Bushkin"
TITLE "1947-1950 {Chronological Classics, 1459}"
FILE "01. Chicago.flac" WAVE
  TRACK 01 AUDIO
    INDEX 01 00:00:00
  TRACK 02 AUDIO
    INDEX 00 02:46:45
FILE "02. 12th Street Rag.flac" WAVE
    INDEX 01 00:00:00
  TRACK 03 AUDIO
    INDEX 00 03:00:01
FILE "03. Edgewater Beach.flac" WAVE
    INDEX 01 00:00:00
  TRACK 04 AUDIO
    INDEX 00 02:48:36
FILE "04. Doggin' The Gutter.flac" WAVE
    INDEX 01 00:00:00
  TRACK 05 AUDIO
    INDEX 00 02:45:72
FILE "05. New Orleans Butterfly.flac" WAVE
    INDEX 01 00:00:00
  TRACK 06 AUDIO
    INDEX 00 03:12:62
FILE "06. Hoity-Hoity.flac" WAVE
    INDEX 01 00:00:00
  TRACK 07 AUDIO
    INDEX 00 02:41:48
FILE "07. The Song Is Ended.flac" WAVE
    INDEX 01 00:00:00
  TRACK 08 AUDIO
    INDEX 00 05:14:12
FILE "08. Sweet Georgia Brown.flac" WAVE
    INDEX 01 00:00:00
  TRACK 09 AUDIO
    INDEX 00 05:16:57
FILE "09. I May Be Wrong.flac" WAVE
    INDEX 01 00:00:00
  TRACK 10 AUDIO
    INDEX 00 03:00:70
FILE "10. You Do Something To Me.flac" WAVE
    INDEX 01 00:00:00
  TRACK 11 AUDIO
    INDEX 00 02:55:64
FILE "11. Soft Lights And Sweet Music.flac" WAVE
    INDEX 01 00:00:00
  TRACK 12 AUDIO
    INDEX 00 01:37:19
FILE "12. Soft Lights And Sweet Music.flac" WAVE
    INDEX 01 00:00:00
  TRACK 13 AUDIO
    INDEX 00 02:29:20
FILE "13. Indiana - Part 1.flac" WAVE
    INDEX 01 00:00:00
FILE "14. Indiana - Part 2.flac" WAVE
  TRACK 14 AUDIO
    INDEX 01 00:00:00
  TRACK 15 AUDIO
    INDEX 00 02:22:03
FILE "15. I Can't Get Started.flac" WAVE
    INDEX 01 00:00:00
  TRACK 16 AUDIO
    INDEX 00 02:48:27
FILE "16. It Never Entered My Mind.flac" WAVE
    INDEX 01 00:00:00
  TRACK 17 AUDIO
    INDEX 00 03:07:00
FILE "17. Oh! Look At Me Now.flac" WAVE
    INDEX 01 00:00:00
  TRACK 18 AUDIO
    INDEX 00 02:49:46
FILE "18. So In Love.flac" WAVE
    INDEX 01 00:00:00
  TRACK 19 AUDIO
    INDEX 00 02:25:67
FILE "19. I Love A Piano.flac" WAVE
    INDEX 01 00:00:00
  TRACK 20 AUDIO
    INDEX 00 02:28:24
FILE "20. If I Knew You Were There.flac" WAVE
    INDEX 01 00:00:00
  TRACK 21 AUDIO
    INDEX 00 03:02:28
FILE "21. One For The Road.flac" WAVE
    INDEX 01 00:00:00
  TRACK 22 AUDIO
    INDEX 00 03:00:51
FILE "22. But Not For Me.flac" WAVE
    INDEX 01 00:00:00
  TRACK 23 AUDIO
    INDEX 00 03:06:74
FILE "23. Dancing On The Ceiling.flac" WAVE
    INDEX 01 00:00:00
  TRACK 24 AUDIO
    INDEX 00 02:50:06
FILE "24. Stompin' At The Savoy.flac" WAVE
    INDEX 01 00:00:00

___ ___Серия The Chronological Classics на трекере___ ___
 
 
07:28
395
Нет комментариев. Ваш будет первым!