Поиск

(swing) Momo Wandel Soumah - Afro Swing - 1999, FLAC (tracks+.cue), lossless

(swing) Momo Wandel Soumah - Afro Swing - 1999, FLAC (tracks+.cue), lossless
Треклист:
Momo Wandel Soumah / Afro Swing
Жанр: swing
Страна-производитель диска: made in EU
Год издания диска: 1999
Издатель (лейбл): fonti musicali
Номер по каталогу: fmd 217
Аудиокодек: FLAC (*.flac)
Тип рипа: tracks+.cue
Битрейт аудио: lossless
Продолжительность: 61:56
Источник (релизер): собственная коллекция
Наличие сканов в содержимом раздачи: да
Треклист:
01.Felenko Yefe
02.Tamo
03.Tamouya Gouli
04.Yereleee
05.Arne
06.Toko
07.Lefa lu
08.Signoya
09.Hommage а mon pere, Mamadi Mansare
 
Лог создания рипа
Exact Audio Copy V0.99 prebeta 5 from 4. May 2009
Отчёт EAC об извлечении, выполненном 4. октября 2011, 17:23
Momo Wandel Soumah / Afro Swing
Дисковод: Optiarc DVD RW AD-7700H Adapter: 0 ID: 1
Режим чтения : Достоверность
Использование точного потока : Да
Отключение кэша аудио : Да
Использование указателей C2 : Нет
Коррекция смещения при чтении : 48
Способность читать области Lead-in и Lead-out : Нет
Заполнение пропущенных сэмплов тишиной : Да
Удаление блоков с тишиной в начале и конце : Нет
При вычислениях CRC использовались нулевые сэмплы : Да
Интерфейс : Встроенный Win32-интерфейс для Win NT/2000
Выходной формат : Пользовательский кодировщик
Выбранный битрейт : 1024 kBit/s
Качество : Высокий
Добавление ID3-тэга : Нет
Утилита сжатия : C:\Program Files (x86)\FLAC\flac.exe
Дополнительные параметры : -V -8 -T "Date=%year%" -T "Genre=%genre%" %source%
TOC извлечённого CD
Трек | Старт | Длительность | Начальный сектор | Конечный сектор
---------------------------------------------------------------------
1 | 0:00.00 | 8:19.50 | 0 | 37474
2 | 8:19.50 | 5:58.52 | 37475 | 64376
3 | 14:18.27 | 8:44.65 | 64377 | 103741
4 | 23:03.17 | 6:37.10 | 103742 | 133526
5 | 29:40.27 | 7:28.68 | 133527 | 167194
6 | 37:09.20 | 7:43.14 | 167195 | 201933
7 | 44:52.34 | 5:40.00 | 201934 | 227433
8 | 50:32.34 | 9:23.71 | 227434 | 269729
9 | 59:56.30 | 1:54.05 | 269730 | 278284
Характеристики диапазона извлечения и сообщения об ошибках
Выбранный диапазон
Имя файла C:\Muzik\Momo Wandel Soumah\Momo Wandel Soumah - Afro Swing.wav
Пиковый уровень 100.0 %
Качество диапазона 99.9 %
CRC теста 9981696B
CRC копии 9981696B
Копирование... OK
Ошибок не произошло
AccurateRip: сводка
Трек 1 точность не определена (достоверность 3) [F5D46266], AccurateRip вернул [9C80B01F]
Трек 2 точность не определена (достоверность 3) [EF6458F5], AccurateRip вернул [5DC906E9]
Трек 3 точность не определена (достоверность 3) [00F33A2E], AccurateRip вернул [7B1DA6AE]
Трек 4 точность не определена (достоверность 3) [AAEA6491], AccurateRip вернул [1C5E9D0B]
Трек 5 точность не определена (достоверность 3) [8D8198B1], AccurateRip вернул [5A8A0DC5]
Трек 6 точность не определена (достоверность 3) [0C63EE01], AccurateRip вернул [7E36F36D]
Трек 7 точность не определена (достоверность 3) [60872EE9], AccurateRip вернул [8382C1AC]
Трек 8 точность не определена (достоверность 3) [1A8DCD7E], AccurateRip вернул [29BC7EFA]
Трек 9 точность не определена (достоверность 2) [71110451], AccurateRip вернул [F5335FE5]
Ни один трек не прошёл проверки на точность
В вашей базе может быть иной вариант штамповки диска
Конец отчёта
Доп. информация: Редкая пластинка.Заказывал из Франции.Тут давно её искал безрезультатно.При создании рипа EAC в названиях треков вместо диакритиков ошибочно подставлял кириллические буквы,что возможно подпортило лог.(?) Диакритики заменены сходными латинскими буквами.
23:22
354
Нет комментариев. Ваш будет первым!