Поиск

(Swing / Bop) Henry "Red" Allen feat. Coleman Hawkins - World on a String (1957) - 1991, FLAC (tracks+.cue), lossless

Треклист:
Henry "Red" Allen feat. Coleman Hawkins - World on a String
Жанр: Swing / Bop
Год выпуска диска: 1991
Производитель диска: Blue Bird/BMG (2497-2-RB)
Аудио кодек: FLAC
Тип рипа: tracks+.cue
Битрейт аудио: lossless
Продолжительность: 1:01:21
Треклист:
01. Love is Just Around the Corner (5:53)
02. Let Me Miss You, Baby (5:33)
03. Ride, Red, Ride (4:42)
04. I Cover the Waterfront (8:27)
05. 'SWonderful (5:31)
06. St. James Infirmary (3:45)
07. Algiers Bounce (6:52)
08. Love Me or Leave Me (5:14)
09. I've Got the World on a String (5:38)
10. Ain't She Sweet (4:10)
11. Sweet Lorraine (5:35)
Henry "Red" Allen - trumpet
J.C. Higginbotham - trombone
Buster Bailey - clarinet
Coleman Hawkins - tenor sax
Marty Napoleon - piano
Everett Barksdale - guitar
Lloyd Trotman - bass
Cozy Cole - drums
Recorded in New York City, March 21, March 27 and April 10, 1957
За релиз спасибо blvillain
 
XLD Log
X Lossless Decoder version 20091115 (113.3)
XLD extraction logfile from 2009-11-14 18:29:54 -0800
Henry "Red" Allen / World on a String ['57]
Used drive : PIONEER DVD-RW  DVR-112D (revision AC08)
Use cdparanoia mode     : YES (CDParanoia III 10.2 engine)
Disable audio cache     : OK for the drive with cache less than 2750KB
Make use of C2 pointers : NO
Read offset correction  : 48
Max retry count         : 100
TOC of the extracted CD
     Track |   Start  |  Length  | Start sector | End sector
    ---------------------------------------------------------
        1  | 00:00:37 | 05:52:33 |        37    |    26469
        2  | 05:52:70 | 05:32:62 |     26470    |    51431
        3  | 11:25:57 | 04:42:08 |     51432    |    72589
        4  | 16:07:65 | 08:26:72 |     72590    |   110611
        5  | 24:34:62 | 05:30:43 |    110612    |   135404
        6  | 30:05:30 | 03:45:30 |    135405    |   152309
        7  | 33:50:60 | 06:52:27 |    152310    |   183236
        8  | 40:43:12 | 05:14:35 |    183237    |   206821
        9  | 45:57:47 | 05:38:33 |    206822    |   232204
       10  | 51:36:05 | 04:10:07 |    232205    |   250961
       11  | 55:46:12 | 05:35:15 |    250962    |   276101
Track 01
    Filename : /Volumes/drop/World on a String ['57]/01 - Love is Just Around the Corner (218).flac
    CRC32 hash (test run)  : 4AFA19F2
    CRC32 hash             : 4AFA19F2
    CRC32 hash (skip zero) : 71671E31
    AccurateRip signature  : 4F7AF25E
        ->Accurately ripped! (confidence 2)
    Statistics
        Read error                           : 0
        Skipped (treated as error)           : 0
        Edge jitter error (maybe fixed)      : 0
        Atom jitter error (maybe fixed)      : 0
        Drift error (maybe fixed)            : 0
        Dropped bytes error (maybe fixed)    : 0
        Duplicated bytes error (maybe fixed) : 0
        Inconsistency in error sectors       : 0
Track 02
    Filename : /Volumes/drop/World on a String ['57]/02 - Let Me Miss You, Baby (99).flac
    CRC32 hash (test run)  : 69CF0D41
    CRC32 hash             : 69CF0D41
    CRC32 hash (skip zero) : C45E84CD
    AccurateRip signature  : F019AB02
        ->Accurately ripped! (confidence 2)
    Statistics
        Read error                           : 0
        Skipped (treated as error)           : 0
        Edge jitter error (maybe fixed)      : 0
        Atom jitter error (maybe fixed)      : 0
        Drift error (maybe fixed)            : 0
        Dropped bytes error (maybe fixed)    : 0
        Duplicated bytes error (maybe fixed) : 0
        Inconsistency in error sectors       : 0
Track 03
    Filename : /Volumes/drop/World on a String ['57]/03 - Ride, Red, Ride (172).flac
    CRC32 hash (test run)  : 696A2DE9
    CRC32 hash             : 696A2DE9
    CRC32 hash (skip zero) : 06EF1ABF
    AccurateRip signature  : A37609E6
        ->Accurately ripped! (confidence 2)
    Statistics
        Read error                           : 0
        Skipped (treated as error)           : 0
        Edge jitter error (maybe fixed)      : 0
        Atom jitter error (maybe fixed)      : 0
        Drift error (maybe fixed)            : 0
        Dropped bytes error (maybe fixed)    : 0
        Duplicated bytes error (maybe fixed) : 0
        Inconsistency in error sectors       : 0
Track 04
    Filename : /Volumes/drop/World on a String ['57]/04 - I Cover the Waterfront (90).flac
    CRC32 hash (test run)  : 39BEC1AE
    CRC32 hash             : 39BEC1AE
    CRC32 hash (skip zero) : 4326B524
    AccurateRip signature  : 8F594183
        ->Accurately ripped! (confidence 2)
    Statistics
        Read error                           : 0
        Skipped (treated as error)           : 0
        Edge jitter error (maybe fixed)      : 0
        Atom jitter error (maybe fixed)      : 0
        Drift error (maybe fixed)            : 0
        Dropped bytes error (maybe fixed)    : 0
        Duplicated bytes error (maybe fixed) : 0
        Inconsistency in error sectors       : 0
Track 05
    Filename : /Volumes/drop/World on a String ['57]/05 - 'SWonderful (235).flac
    CRC32 hash (test run)  : A7EAA0FA
    CRC32 hash             : A7EAA0FA
    CRC32 hash (skip zero) : 105F3F90
    AccurateRip signature  : 96532203
        ->Accurately ripped! (confidence 2)
    Statistics
        Read error                           : 0
        Skipped (treated as error)           : 0
        Edge jitter error (maybe fixed)      : 0
        Atom jitter error (maybe fixed)      : 0
        Drift error (maybe fixed)            : 0
        Dropped bytes error (maybe fixed)    : 0
        Duplicated bytes error (maybe fixed) : 0
        Inconsistency in error sectors       : 0
Track 06
    Filename : /Volumes/drop/World on a String ['57]/06 - St. James Infirmary (95).flac
    CRC32 hash (test run)  : B6955451
    CRC32 hash             : B6955451
    CRC32 hash (skip zero) : C80B9A45
    AccurateRip signature  : 365BCD84
        ->Accurately ripped! (confidence 2)
    Statistics
        Read error                           : 0
        Skipped (treated as error)           : 0
        Edge jitter error (maybe fixed)      : 0
        Atom jitter error (maybe fixed)      : 0
        Drift error (maybe fixed)            : 0
        Dropped bytes error (maybe fixed)    : 0
        Duplicated bytes error (maybe fixed) : 0
        Inconsistency in error sectors       : 0
Track 07
    Filename : /Volumes/drop/World on a String ['57]/07 - Algiers Bounce (167).flac
    CRC32 hash (test run)  : 2FE1792F
    CRC32 hash             : 2FE1792F
    CRC32 hash (skip zero) : 89F29388
    AccurateRip signature  : 728084B0
        ->Accurately ripped! (confidence 2)
    Statistics
        Read error                           : 0
        Skipped (treated as error)           : 0
        Edge jitter error (maybe fixed)      : 0
        Atom jitter error (maybe fixed)      : 0
        Drift error (maybe fixed)            : 0
        Dropped bytes error (maybe fixed)    : 0
        Duplicated bytes error (maybe fixed) : 0
        Inconsistency in error sectors       : 0
Track 08
    Filename : /Volumes/drop/World on a String ['57]/08 - Love Me or Leave Me (155).flac
    CRC32 hash (test run)  : 5F943674
    CRC32 hash             : 5F943674
    CRC32 hash (skip zero) : D4132C99
    AccurateRip signature  : 173DDA82
        ->Accurately ripped! (confidence 2)
    Statistics
        Read error                           : 0
        Skipped (treated as error)           : 0
        Edge jitter error (maybe fixed)      : 0
        Atom jitter error (maybe fixed)      : 0
        Drift error (maybe fixed)            : 0
        Dropped bytes error (maybe fixed)    : 0
        Duplicated bytes error (maybe fixed) : 0
        Inconsistency in error sectors       : 0
Track 09
    Filename : /Volumes/drop/World on a String ['57]/09 - I've Got the World on a String (100).flac
    CRC32 hash (test run)  : 88F4F48B
    CRC32 hash             : 88F4F48B
    CRC32 hash (skip zero) : 4F3DF89C
    AccurateRip signature  : 01BB6EE8
        ->Track not present in AccurateRip database.
    Statistics
        Read error                           : 0
        Skipped (treated as error)           : 0
        Edge jitter error (maybe fixed)      : 0
        Atom jitter error (maybe fixed)      : 0
        Drift error (maybe fixed)            : 0
        Dropped bytes error (maybe fixed)    : 0
        Duplicated bytes error (maybe fixed) : 0
        Inconsistency in error sectors       : 0
Track 10
    Filename : /Volumes/drop/World on a String ['57]/10 - Ain't She Sweet (200).flac
    CRC32 hash (test run)  : C820CFF6
    CRC32 hash             : C820CFF6
    CRC32 hash (skip zero) : D5520962
    AccurateRip signature  : A2A333BD
        ->Accurately ripped! (confidence 2)
    Statistics
        Read error                           : 0
        Skipped (treated as error)           : 0
        Edge jitter error (maybe fixed)      : 0
        Atom jitter error (maybe fixed)      : 0
        Drift error (maybe fixed)            : 0
        Dropped bytes error (maybe fixed)    : 0
        Duplicated bytes error (maybe fixed) : 0
        Inconsistency in error sectors       : 0
Track 11
    Filename : /Volumes/drop/World on a String ['57]/11 - Sweet Lorraine (104).flac
    CRC32 hash (test run)  : 02F38C43
    CRC32 hash             : 02F38C43
    CRC32 hash (skip zero) : C7129EA4
    AccurateRip signature  : 553251DE
        ->Track not present in AccurateRip database.
    Statistics
        Read error                           : 0
        Skipped (treated as error)           : 0
        Edge jitter error (maybe fixed)      : 0
        Atom jitter error (maybe fixed)      : 0
        Drift error (maybe fixed)            : 0
        Dropped bytes error (maybe fixed)    : 0
        Duplicated bytes error (maybe fixed) : 0
        Inconsistency in error sectors       : 0
No errors occurred
End of status report
 
 
Cue
TITLE "World on a String ['57]"
PERFORMER "Henry "Red" Allen"
REM GENRE "Swing"
REM DATE 1991
FILE "01 - Love is Just Around the Corner (218).wav" WAVE
  TRACK 01 AUDIO
    TITLE "Love is Just Around the Corner (218)"
    INDEX 00 00:00:00
    INDEX 01 00:00:37
  TRACK 02 AUDIO
    TITLE "Let Me Miss You, Baby (99)"
    INDEX 00 05:50:46
FILE "02 - Let Me Miss You, Baby (99).wav" WAVE
    INDEX 01 00:00:00
  TRACK 03 AUDIO
    TITLE "Ride, Red, Ride (172)"
    INDEX 00 05:31:07
FILE "03 - Ride, Red, Ride (172).wav" WAVE
    INDEX 01 00:00:00
  TRACK 04 AUDIO
    TITLE "I Cover the Waterfront (90)"
    INDEX 00 04:40:21
FILE "04 - I Cover the Waterfront (90).wav" WAVE
    INDEX 01 00:00:00
  TRACK 05 AUDIO
    TITLE "'SWonderful (235)"
    INDEX 00 08:25:10
FILE "05 - 'SWonderful (235).wav" WAVE
    INDEX 01 00:00:00
  TRACK 06 AUDIO
    TITLE "St. James Infirmary (95)"
    INDEX 00 05:28:56
FILE "06 - St. James Infirmary (95).wav" WAVE
    INDEX 01 00:00:00
FILE "07 - Algiers Bounce (167).wav" WAVE
  TRACK 07 AUDIO
    TITLE "Algiers Bounce (167)"
    INDEX 01 00:00:00
  TRACK 08 AUDIO
    TITLE "Love Me or Leave Me (155)"
    INDEX 00 06:50:40
FILE "08 - Love Me or Leave Me (155).wav" WAVE
    INDEX 01 00:00:00
  TRACK 09 AUDIO
    TITLE "I've Got the World on a String (100)"
    INDEX 00 05:12:48
FILE "09 - I've Got the World on a String (100).wav" WAVE
    INDEX 01 00:00:00
  TRACK 10 AUDIO
    TITLE "Ain't She Sweet (200)"
    INDEX 00 05:36:46
FILE "10 - Ain't She Sweet (200).wav" WAVE
    INDEX 01 00:00:00
  TRACK 11 AUDIO
    TITLE "Sweet Lorraine (104)"
    INDEX 00 04:08:20
FILE "11 - Sweet Lorraine (104).wav" WAVE
    INDEX 01 00:00:00
15:21
614
Нет комментариев. Ваш будет первым!