Поиск

(Structured Improvisation, Experimental Big Band) Anthony Braxton + Italian Instabile Orchestra - Creative Orchestra (Bolzano) 2007 - 2007, FLAC (tracks+.cue), lossless

(Structured Improvisation, Experimental Big Band) Anthony Braxton + Italian Instabile Orchestra - Creative Orchestra (Bolzano) 2007 - 2007, FLAC (tracks+.cue), lossless
Треклист:
Anthony Braxton + Italian Instabile Orchestra - Creative Orchestra (Bolzano) 2007
Жанр: Structured Improvisation, Experimental Big Band
Год выпуска диска: 2007
Производитель диска: Rai Trade (RTPJ0013)
Источник: другой трекер (weejie)
Аудио кодек: FLAC
Тип рипа: tracks+.cue
Битрейт аудио: lossless
Продолжительность: 1:08:48
Трэклист:
1. Composition No. 63 (14.21)
2. Composition No. 92 part 1 (06.58)
3. Composition No. 164 part 1 (16.37)
4. Composition No. 92 part 2 (09.54)
5. Composition No. 164 part 2 (11.34)
6. Composition No. 59 (09.21)
A Mario Schiano, in memoriam
all compositions by Anthony Braxton
Recorded on 16 June 2007 at the Alto Adige Jazz Festival, Teatro Studio del Nuovo Teatro Comunale, Bolzano.
Anthony Braxton, conductor, alto saxophone, sopranino saxophone;
Guido Mazzon, trumpet;
Pino Minafra, trumpet;
Alberto Mandarini, trumpet;
Giancarlo Schiaffini, trombone;
Sebi Tramontana, trombone;
Lauro Rossi, trombone;
Martin Mayes, French horn;
Eugenio Colombo, alto saxophone, flute, bass flute;
Carlo Actis Dato, baritone saxophone;
Daniele Cavallanti, tenor saxophone;
Gianluigi Trovesi, alto saxophone, Eb clarinet;
Emanuele Parrini, violin;
Paolo Damiani, cello;
Giovanni Maier, double bass;
Umberto Petrin, piano;
Vincenzo Mazzone, drums, percussion;
Tiziano Tononi, drums, percussion.
 
Лог создания рипа
EAC extraction logfile from 13. January 2009, 14:37 for CD
Anthony Braxton / Italian Instabile Orchestra
Used drive : HL-DT-STCDRW/DVD GCC4482 Adapter: 1 ID: 0
Read mode : Secure with NO C2, accurate stream, disable cache
Read offset correction : 6
Overread into Lead-In and Lead-Out : No
Used output format : C:\Eac\Codecs\flac.exe (User Defined Encoder)
320 kBit/s
Additional command line options : -8 -V -T "artist=%a" -T "title=%t" -T "album=%g" -T "date=%y" -T "tracknumber=%n" -T "genre=%m" -T "comment=EAC Flac 1.1.2 -8" %s
Other options :
Fill up missing offset samples with silence : Yes
Delete leading and trailing silent blocks : No
Installed external ASPI interface
Track 1
Filename C:\Documents and Settings\ab\01 - Composition No. 63.wav
Pre-gap length 0:00:02.00
Peak level 99.6 %
Track quality 100.0 %
Test CRC 252753A7
Copy CRC 252753A7
Copy OK
Track 2
Filename C:\Documents and Settings\ab\02 - Composition No. 92 part 1.wav
Peak level 99.6 %
Track quality 100.0 %
Test CRC 7342DAF4
Copy CRC 7342DAF4
Copy OK
Track 3
Filename C:\Documents and Settings\ab\03 - Composition No. 164 part 1.wav
Peak level 99.6 %
Track quality 100.0 %
Test CRC 4A0CC951
Copy CRC 4A0CC951
Copy OK
Track 4
Filename C:\Documents and Settings\ab\04 - Composition No. 92 part 2.wav
Peak level 99.6 %
Track quality 100.0 %
Test CRC 91C12769
Copy CRC 91C12769
Copy OK
Track 5
Filename C:\Documents and Settings\ab\05 - Composition No. 164 part 2.wav
Peak level 99.6 %
Track quality 100.0 %
Test CRC A642E7FB
Copy CRC A642E7FB
Copy OK
Track 6
Filename C:\Documents and Settings\ab\06 - Composition No. 59.wav
Peak level 99.6 %
Track quality 100.0 %
Test CRC 71FF5DA4
Copy CRC 71FF5DA4
Copy OK
No errors occured
End of status report
 
Содержание индексной карты (.CUE)
REM DISCID 5D102006
REM COMMENT "ExactAudioCopy v0.95b4"
PERFORMER "Anthony Braxton"
TITLE "Italian Instabile Orchestra"
FILE "01 - Composition No. 63.wav" WAVE
TRACK 01 AUDIO
TITLE "Composition No. 63"
PERFORMER "Anthony Braxton"
ISRC ITE320800815
INDEX 01 00:00:00
FILE "02 - Composition No. 92 part 1.wav" WAVE
TRACK 02 AUDIO
TITLE "Composition No. 92 part 1"
PERFORMER "Anthony Braxton"
ISRC ITE320800816
INDEX 01 00:00:00
FILE "03 - Composition No. 164 part 1.wav" WAVE
TRACK 03 AUDIO
TITLE "Composition No. 164 part 1"
PERFORMER "Anthony Braxton"
ISRC ITE320800817
INDEX 01 00:00:00
FILE "04 - Composition No. 92 part 2.wav" WAVE
TRACK 04 AUDIO
TITLE "Composition No. 92 part 2"
PERFORMER "Anthony Braxton"
ISRC ITE320800817
INDEX 01 00:00:00
FILE "05 - Composition No. 164 part 2.wav" WAVE
TRACK 05 AUDIO
TITLE "Composition No. 164 part 2"
PERFORMER "Anthony Braxton"
ISRC ITE320800819
INDEX 01 00:00:00
FILE "06 - Composition No. 59.wav" WAVE
TRACK 06 AUDIO
TITLE "Composition No. 59"
PERFORMER "Anthony Braxton"
ISRC ITE320800819
INDEX 01 00:00:00
 
Лог проверки качества
AUDIOCHECKER v2.0 beta (build 457) - by Dester - opdester@freemail.hu
~~~~~~~~~~~~~~~~~~~~~~~~~~~~~~~~~~
-=== DO NOT EDIT THIS FILE! ===-
Path: ...\creative orchestra (bolzano) 2007
1 -=- 01 - Composition No. 63.flac -=- CDDA (100%)
2 -=- 02 - Composition No. 92 part 1.flac -=- CDDA (100%)
3 -=- 03 - Composition No. 164 part 1.flac -=- CDDA (100%)
4 -=- 04 - Composition No. 92 part 2.flac -=- CDDA (100%)
5 -=- 05 - Composition No. 164 part 2.flac -=- CDDA (100%)
6 -=- 06 - Composition No. 59.flac -=- CDDA (100%)
Summary 100,00% CDDA
24338292
22:04
422
Нет комментариев. Ваш будет первым!