Поиск

(Southern Soul, R&B, Disco) [CD] Anita Ward - Songs Of Love (1979) - 2013, FLAC (tracks+.cue), lossless

(Southern Soul, R&B, Disco) [CD] Anita Ward - Songs Of Love (1979) - 2013, FLAC (tracks+.cue), lossless
Треклист:
Anita Ward - Songs Of Love (1979) Жанр: Southern Soul, R&B, Disco
Носитель: CD
Год издания: 2013
Издатель (лейбл): Juana Records/Big Break Records/Cherry Red Records
Номер по каталогу: CDBBR 0215
Аудиокодек: FLAC (*.flac)
Тип рипа: tracks+.cue
Битрейт аудио: lossless
Продолжительность: 47:36
Источник (релизер): ruskaval
Наличие сканов в содержимом раздачи: да
Треклист:
01. Ring My Bell (8:09)
02. Sweet Splendor (3:51)
03. There's No Doubt About It (3:51)
04. You Lied (4:58)
05. Make Believe Lovers (7:06)
06. If I Could Feel That Old Feeling Again (4:16)
07. Spoiled By Your Love (3:50)
08. I Won't Stop Loving You (4:35)
09. Ring My Bell (Single Version) (3:34)
10. Make Believe Lovers (Single Version) (3:27)
 
 
Лог создания рипа
Exact Audio Copy V1.0 beta 3 from 29. August 2011
EAC extraction logfile from 11. September 2013, 7:40
Anita Ward / Songs Of Love
Used drive : TSSTcorp CDDVDW Adapter: 0 ID: 0
Read mode : Secure
Utilize accurate stream : Yes
Defeat audio cache : Yes
Make use of C2 pointers : No
Read offset correction : 6
Overread into Lead-In and Lead-Out : No
Fill up missing offset samples with silence : Yes
Delete leading and trailing silent blocks : No
Null samples used in CRC calculations : Yes
Used interface : Native Win32 interface for Win NT & 2000
Gap handling : Appended to previous track
Used output format : User Defined Encoder
Selected bitrate : 128 kBit/s
Quality : High
Add ID3 tag : No
Command line compressor : C:\Program Files (x86)\Exact Audio Copy\Flac\flac.exe
Additional command line options : -8 -V -T "ARTIST=%artist%" -T "TITLE=%title%" -T "ALBUM=%albumtitle%" -T "DATE=%year%" -T "TRACKNUMBER=%tracknr%" -T "TOTALTRACKS=%numtracks%" -T "GENRE=%genre%" -T "ALBUMARTIST=%albumartist%" -T "ALBUM ARTIST=%albumartist%" -T "COMMENT=EAC Secure Mode, Test & Copy, AccurateRip, FLAC -8" %source%
TOC of the extracted CD
Track | Start | Length | Start sector | End sector
---------------------------------------------------------
1 | 0:00.00 | 8:09.34 | 0 | 36708
2 | 8:09.34 | 3:50.48 | 36709 | 54006
3 | 12:00.07 | 3:51.30 | 54007 | 71361
4 | 15:51.37 | 4:58.09 | 71362 | 93720
5 | 20:49.46 | 7:05.46 | 93721 | 125641
6 | 27:55.17 | 4:16.32 | 125642 | 144873
7 | 32:11.49 | 3:49.48 | 144874 | 162096
8 | 36:01.22 | 4:34.38 | 162097 | 182684
9 | 40:35.60 | 3:33.55 | 182685 | 198714
10 | 44:09.40 | 3:26.55 | 198715 | 214219
Track 1
Filename C:\AddisistheGodFlac\01 - Make Believe Lovers.wav
Pre-gap length 0:00:02.00
Peak level 96.6 %
Extraction speed 3.0 X
Track quality 100.0 %
Test CRC 7FC8ECA3
Copy CRC 7FC8ECA3
Accurately ripped (confidence 2) [02DB33AE] (AR v2)
Copy OK
Track 2
Filename C:\AddisistheGodFlac\02 - If I Could Feel That.wav
Pre-gap length 0:00:01.53
Peak level 96.6 %
Extraction speed 3.2 X
Track quality 100.0 %
Test CRC D77F0B5A
Copy CRC D77F0B5A
Accurately ripped (confidence 2) [10D7DCF7] (AR v2)
Copy OK
Track 3
Filename C:\AddisistheGodFlac\03 - Old Feeling Again.wav
Pre-gap length 0:00:02.12
Peak level 96.0 %
Extraction speed 2.8 X
Track quality 99.9 %
Test CRC 1197A5EB
Copy CRC 1197A5EB
Accurately ripped (confidence 2) [06BF0CA9] (AR v2)
Copy OK
Track 4
Filename C:\AddisistheGodFlac\04 - Spoiled By Your Love.wav
Pre-gap length 0:00:01.65
Peak level 96.6 %
Extraction speed 3.2 X
Track quality 99.9 %
Test CRC 81297A83
Copy CRC 81297A83
Accurately ripped (confidence 2) [5A220C13] (AR v2)
Copy OK
Track 5
Filename C:\AddisistheGodFlac\05 - I Won't Stop Loving You.wav
Pre-gap length 0:00:01.50
Peak level 96.6 %
Extraction speed 3.8 X
Track quality 99.9 %
Test CRC 1237BC03
Copy CRC 1237BC03
Accurately ripped (confidence 2) [BB8A67D7] (AR v2)
Copy OK
Track 6
Filename C:\AddisistheGodFlac\06 - Ring My Bell.wav
Pre-gap length 0:00:01.41
Peak level 96.6 %
Extraction speed 4.4 X
Track quality 100.0 %
Test CRC 84F7A624
Copy CRC 84F7A624
Accurately ripped (confidence 2) [9E5B301A] (AR v2)
Copy OK
Track 7
Filename C:\AddisistheGodFlac\07 - Sweet Splendor.wav
Pre-gap length 0:00:01.56
Peak level 96.6 %
Extraction speed 4.5 X
Track quality 100.0 %
Test CRC 326E3FB5
Copy CRC 326E3FB5
Accurately ripped (confidence 2) [2930A4B1] (AR v2)
Copy OK
Track 8
Filename C:\AddisistheGodFlac\08 - There's No Doubt.wav
Pre-gap length 0:00:01.44
Peak level 96.6 %
Extraction speed 4.7 X
Track quality 100.0 %
Test CRC 264DAAFD
Copy CRC 264DAAFD
Accurately ripped (confidence 2) [3DB92A12] (AR v2)
Copy OK
Track 9
Filename C:\AddisistheGodFlac\09 - Ring My Bell (Single Version).wav
Pre-gap length 0:00:03.55
Peak level 96.6 %
Extraction speed 4.7 X
Track quality 100.0 %
Test CRC B34E8DF8
Copy CRC B34E8DF8
Accurately ripped (confidence 2) [DF9F7E9D] (AR v2)
Copy OK
Track 10
Filename C:\AddisistheGodFlac\10 - Make Believe Lovers (Single Version).wav
Pre-gap length 0:00:00.74
Peak level 94.8 %
Extraction speed 4.9 X
Track quality 100.0 %
Test CRC 46D2D107
Copy CRC 46D2D107
Accurately ripped (confidence 2) [2EA7F1B9] (AR v2)
Copy OK
All tracks accurately ripped
No errors occurred
End of status report
==== Log checksum A139F348A05D2529D0DE5A261915D96078E5A5A08904C6A2C00B7046A3316236 ====
 
Содержание индексной карты (.CUE) [оригинальный]
REM GENRE Soul
REM DATE 1979
REM DISCID 840B280A
REM COMMENT "ExactAudioCopy v1.0b3"
PERFORMER "Anita Ward"
TITLE "Songs Of Love"
FILE "01 - Make Believe Lovers.wav" WAVE
TRACK 01 AUDIO
TITLE "Make Believe Lovers"
PERFORMER "Anita Ward"
INDEX 01 00:00:00
TRACK 02 AUDIO
TITLE "If I Could Feel That"
PERFORMER "Anita Ward"
INDEX 00 08:07:56
FILE "02 - If I Could Feel That.wav" WAVE
INDEX 01 00:00:00
TRACK 03 AUDIO
TITLE "Old Feeling Again"
PERFORMER "Anita Ward"
INDEX 00 03:48:36
FILE "03 - Old Feeling Again.wav" WAVE
INDEX 01 00:00:00
TRACK 04 AUDIO
TITLE "Spoiled By Your Love"
PERFORMER "Anita Ward"
INDEX 00 03:49:40
FILE "04 - Spoiled By Your Love.wav" WAVE
INDEX 01 00:00:00
TRACK 05 AUDIO
TITLE "I Won't Stop Loving You"
PERFORMER "Anita Ward"
INDEX 00 04:56:34
FILE "05 - I Won't Stop Loving You.wav" WAVE
INDEX 01 00:00:00
TRACK 06 AUDIO
TITLE "Ring My Bell"
PERFORMER "Anita Ward"
INDEX 00 07:04:05
FILE "06 - Ring My Bell.wav" WAVE
INDEX 01 00:00:00
TRACK 07 AUDIO
TITLE "Sweet Splendor"
PERFORMER "Anita Ward"
INDEX 00 04:14:51
FILE "07 - Sweet Splendor.wav" WAVE
INDEX 01 00:00:00
TRACK 08 AUDIO
TITLE "There's No Doubt"
PERFORMER "Anita Ward"
INDEX 00 03:48:04
FILE "08 - There's No Doubt.wav" WAVE
INDEX 01 00:00:00
TRACK 09 AUDIO
TITLE "Ring My Bell (Single Version)"
PERFORMER "Anita Ward"
INDEX 00 04:30:58
FILE "09 - Ring My Bell (Single Version).wav" WAVE
INDEX 01 00:00:00
TRACK 10 AUDIO
TITLE "Make Believe Lovers (Single Version)"
PERFORMER "Anita Ward"
INDEX 00 03:32:56
FILE "10 - Make Believe Lovers (Single Version).wav" WAVE
INDEX 01 00:00:00
 
Содержание индексной карты (.CUE) [редактированный]
REM GENRE Soul
REM DATE 1979
REM DISCID 840B280A
REM COMMENT "ExactAudioCopy v1.0b3"
PERFORMER "Anita Ward"
TITLE "Songs Of Love"
FILE "01. Ring My Bell.flac" WAVE
TRACK 01 AUDIO
TITLE "Ring My Bell"
PERFORMER "Anita Ward"
INDEX 01 00:00:00
TRACK 02 AUDIO
TITLE "Sweet Splendor"
PERFORMER "Anita Ward"
INDEX 00 08:07:56
FILE "02. Sweet Splendor.flac" WAVE
INDEX 01 00:00:00
TRACK 03 AUDIO
TITLE "There's No Doubt About It"
PERFORMER "Anita Ward"
INDEX 00 03:48:36
FILE "03. There's No Doubt About It.flac" WAVE
INDEX 01 00:00:00
TRACK 04 AUDIO
TITLE "You Lied"
PERFORMER "Anita Ward"
INDEX 00 03:49:40
FILE "04. You Lied.flac" WAVE
INDEX 01 00:00:00
TRACK 05 AUDIO
TITLE "Make Believe Lovers"
PERFORMER "Anita Ward"
INDEX 00 04:56:34
FILE "05. Make Believe Lovers.flac" WAVE
INDEX 01 00:00:00
TRACK 06 AUDIO
TITLE "If I Could Feel That Old Feeling Again"
PERFORMER "Anita Ward"
INDEX 00 07:04:05
FILE "06. If I Could Feel That Old Feeling Again.flac" WAVE
INDEX 01 00:00:00
TRACK 07 AUDIO
TITLE "Spoiled By Your Love"
PERFORMER "Anita Ward"
INDEX 00 04:14:51
FILE "07. Spoiled By Your Love.flac" WAVE
INDEX 01 00:00:00
TRACK 08 AUDIO
TITLE "I Won't Stop Loving You"
PERFORMER "Anita Ward"
INDEX 00 03:48:04
FILE "08. I Won't Stop Loving You.flac" WAVE
INDEX 01 00:00:00
TRACK 09 AUDIO
TITLE "Ring My Bell (Single Version)"
PERFORMER "Anita Ward"
INDEX 00 04:30:58
FILE "09. Ring My Bell (Single Version).flac" WAVE
INDEX 01 00:00:00
TRACK 10 AUDIO
TITLE "Make Believe Lovers (Single Version)"
PERFORMER "Anita Ward"
INDEX 00 03:32:56
FILE "10. Make Believe Lovers (Single Version).flac" WAVE
INDEX 01 00:00:00
 
Об альбоме (сборнике)
Anita Ward hails from that hotbed of Southern Soul music Memphis, TN, and unsurprisingly started her association with music from an early age. Having honed her strong soprano voice singing Gospel in Memphis, Anita recorded with the Rust College A Capella Choir before going on to record with her own Gospel quartet. Anita then concentrated on a career as a teacher but her vocal talents could not be denied so before long her manager had turned her on to song-writer/producer Frederick Knight (who himself had a substantial R&B crossover hit in 1972 with ‘I’ve Been Lonely For So Long’ on the Stax imprint) and Knight was so impressed with Anita’s talents that the initial session progressed into a full albums worth of material.
The result of those sessions produced Anita’s debut LP SONGS OF LOVE (R&B #2 /Pop #8) and a deal with the legendary label T.K. Records was struck. The majority of the tracks on the album are mid-tempo grooves and stunning ballads which Anita owns with her warm soprano voice. Anita’s performance on this record strongly compliments the very assured song-writing and production from Knight with the stand out tracks being ‘Spoiled By Your Love’ and ‘There’s No Doubt About It’.
Despite having a very strong set of songs it was decided that the album was missing a final track so Knight re-worked a song he had written for a previous project and presented it to Anita. She was initially sceptical about the track but the song was recorded with Knight being one of the first to use synth-drums at that time. That track was the now legendary ‘Ring My Bell’, which became the albums only US single. ‘Ring My Bell’ was an instant hit and up-tempo disco classic which eclipsed the success of Donna Summer’s ‘Hot Stuff’ and Sister Sledges ‘We Are Family’ in the summer of 1979 by reaching the pinnacle across all of the main Billboard singles charts, securing an R&B, Pop and Disco #1 and selling over a million copies in the process, propelling Songs Of Love into the Billboard top ten. The song also topped charts internationally reaching #1 in New Zealand, Norway and the UK.
BBR is very proud to bring you SONGS OF LOVE, completely re-mastered and repackaged complete with extensive liner notes and extended bonus content.
SONGS OF LOVE is essential for all R&B, Soul and Disco fans out there!
Приватный:
Нет (DHT включён)
Размер:
349.54 Мб (366,520,885 байт) » файлов: 27
Участники:
0 раздают, 0 качают (0 участников всего)
Внешние участники:
3 раздают, 1 качают (4 участников всего) [ Обновить ]
Есть вопросы - пишите личное сообщение пользователю M0p94ok.
12:20
65
Нет комментариев. Ваш будет первым!