Поиск

(Southern Soul, Funk, Stax) [CD] Roy Lee Johnson - Roy Lee Johnson and the Villagers 1973 - 2010, FLAC (tracks+.cue), lossless

Треклист:
Roy Lee Johnson / Roy Lee Johnson and the Villagers
Жанр: Southern Soul, Funk, Stax
Носитель: CD
Год издания: 2010
Издатель (лейбл): BGP Records
Номер по каталогу: CDBGPM 227
Аудиокодек: FLAC (*.flac)
Тип рипа: tracks+.cue
Битрейт аудио: lossless
Продолжительность: 00:27:00
Источник (релизер): addis
Наличие сканов в содержимом раздачи: да
Треклист:
1 Patch It Up 2:30
2 I'll Be Your Doctor Man 3:22
3 Something Special 3:04
4 I Can't Stand This Loneliness 2:38
5 The Dryer (Part 2) 2:26
6 Don't Tell Me Nothing About My Woman 2:34
7 Razorback Circus 2:52
8 Robot 2:35
9 Midnight At Riley's 2:46
10 The Dryer (Part 1) 2:29
 
Лог создания рипа
Exact Audio Copy V1.0 beta 1 from 15. November 2010
EAC extraction logfile from 28. January 2011, 12:26
Roy Lee Johnson And The Villagers / Roy Lee Johnson And The Villagers
Used drive : Optiarc DVD RW AD-7590S Adapter: 2 ID: 0
Read mode : Secure
Utilize accurate stream : Yes
Defeat audio cache : Yes
Make use of C2 pointers : No
Read offset correction : 48
Overread into Lead-In and Lead-Out : No
Fill up missing offset samples with silence : Yes
Delete leading and trailing silent blocks : No
Null samples used in CRC calculations : Yes
Used interface : Native Win32 interface for Win NT & 2000
Gap handling : Appended to previous track
Used output format : User Defined Encoder
Selected bitrate : 768 kBit/s
Quality : High
Add ID3 tag : No
Command line compressor : C:\Program Files\Exact Audio Copy\Flac\flac.exe
Additional command line options : -8 -V -T "ARTIST=%a" -T "TITLE=%t" -T "ALBUM=%g" -T "DATE=%y" -T "TRACKNUMBER=%n" -T "TOTALTRACKS=%x" -T "GENRE=%m" -T "ALBUMARTIST=%v" -T "ALBUM ARTIST=%v" -T "COMMENT=EAC Secure Mode, Test & Copy, AccurateRip, FLAC -8" %s
TOC of the extracted CD
Track | Start | Length | Start sector | End sector
---------------------------------------------------------
1 | 0:00.00 | 2:29.14 | 0 | 11188
2 | 2:29.14 | 3:19.03 | 11189 | 26116
3 | 5:48.17 | 3:17.22 | 26117 | 40913
4 | 9:05.39 | 2:35.62 | 40914 | 52600
5 | 11:41.26 | 2:23.06 | 52601 | 63331
6 | 14:04.32 | 2:31.66 | 63332 | 74722
7 | 16:36.23 | 2:52.08 | 74723 | 87630
8 | 19:28.31 | 2:31.64 | 87631 | 99019
9 | 22:00.20 | 2:40.36 | 99020 | 111055
10 | 24:40.56 | 2:19.01 | 111056 | 121481
Track 1
Filename C:\Addis Gugsa Is Ethiopian\01 - Patch It Up.wav
Pre-gap length 0:00:02.00
Peak level 94.4 %
Extraction speed 1.0 X
Track quality 100.0 %
Test CRC 992C479B
Copy CRC 992C479B
Track not present in AccurateRip database
Copy OK
Track 2
Filename C:\Addis Gugsa Is Ethiopian\02 - I' Ll Be Your Doctor Man.wav
Pre-gap length 0:00:01.05
Peak level 94.4 %
Extraction speed 1.1 X
Track quality 100.0 %
Test CRC 133634DD
Copy CRC 133634DD
Track not present in AccurateRip database
Copy OK
Track 3
Filename C:\Addis Gugsa Is Ethiopian\03 - Something Special.wav
Pre-gap length 0:00:01.47
Peak level 94.4 %
Extraction speed 1.2 X
Track quality 100.0 %
Test CRC BDC8AE7B
Copy CRC BDC8AE7B
Track not present in AccurateRip database
Copy OK
Track 4
Filename C:\Addis Gugsa Is Ethiopian\04 - I Can't Stand This Loneliness.wav
Pre-gap length 0:00:01.53
Peak level 94.4 %
Extraction speed 1.2 X
Track quality 100.0 %
Test CRC 6C426F81
Copy CRC 6C426F81
Track not present in AccurateRip database
Copy OK
Track 5
Filename C:\Addis Gugsa Is Ethiopian\05 - The Dryer (Part 2).wav
Pre-gap length 0:00:01.32
Peak level 94.4 %
Extraction speed 1.3 X
Track quality 100.0 %
Test CRC 42B93397
Copy CRC 42B93397
Track not present in AccurateRip database
Copy OK
Track 6
Filename C:\Addis Gugsa Is Ethiopian\06 - Don't Tell Nothing About My Woman.wav
Pre-gap length 0:00:01.64
Peak level 94.4 %
Extraction speed 1.4 X
Track quality 100.0 %
Test CRC 66467324
Copy CRC 66467324
Track not present in AccurateRip database
Copy OK
Track 7
Filename C:\Addis Gugsa Is Ethiopian\07 - Razorback Circus.wav
Pre-gap length 0:00:01.25
Peak level 94.4 %
Extraction speed 1.5 X
Track quality 100.0 %
Test CRC 6FCAB027
Copy CRC 6FCAB027
Track not present in AccurateRip database
Copy OK
Track 8
Filename C:\Addis Gugsa Is Ethiopian\08 - Robot.wav
Pre-gap length 0:00:01.57
Peak level 94.4 %
Extraction speed 1.5 X
Track quality 100.0 %
Test CRC 317F4A4C
Copy CRC 317F4A4C
Track not present in AccurateRip database
Copy OK
Track 9
Filename C:\Addis Gugsa Is Ethiopian\09 - Midnight At Riley's.wav
Pre-gap length 0:00:02.02
Peak level 94.4 %
Extraction speed 1.6 X
Track quality 100.0 %
Test CRC 5213BA29
Copy CRC 5213BA29
Track not present in AccurateRip database
Copy OK
Track 10
Filename C:\Addis Gugsa Is Ethiopian\10 - The Dryer (Part 1).wav
Pre-gap length 0:00:01.23
Peak level 94.4 %
Extraction speed 1.6 X
Track quality 100.0 %
Test CRC 7A2D1617
Copy CRC 7A2D1617
Track not present in AccurateRip database
Copy OK
None of the tracks are present in the AccurateRip database
No errors occurred
End of status report
==== Log checksum EBA855F28F418FDB85F760A4B99D3A2B26159DBCFCFC6CD1DCE87CF5B4A05EA1 ====
 
Содержание индексной карты (.CUE)
REM GENRE Funk
REM DATE 1973
REM DISCID 7706530A
REM COMMENT "ExactAudioCopy v1.0b1"
PERFORMER "Roy Lee Johnson And The Villagers"
TITLE "Roy Lee Johnson And The Villagers"
FILE "01 - Patch It Up.wav" WAVE
TRACK 01 AUDIO
TITLE "Patch It Up"
PERFORMER "Roy Lee Johnson And The Villagers"
INDEX 01 00:00:00
TRACK 02 AUDIO
TITLE "I' Ll Be Your Doctor Man"
PERFORMER "Roy Lee Johnson And The Villagers"
INDEX 00 02:28:09
FILE "02 - I' Ll Be Your Doctor Man.wav" WAVE
INDEX 01 00:00:00
TRACK 03 AUDIO
TITLE "Something Special"
PERFORMER "Roy Lee Johnson And The Villagers"
INDEX 00 03:17:31
FILE "03 - Something Special.wav" WAVE
INDEX 01 00:00:00
TRACK 04 AUDIO
TITLE "I Can't Stand This Loneliness"
PERFORMER "Roy Lee Johnson And The Villagers"
INDEX 00 03:15:44
FILE "04 - I Can't Stand This Loneliness.wav" WAVE
INDEX 01 00:00:00
TRACK 05 AUDIO
TITLE "The Dryer (Part 2)"
PERFORMER "Roy Lee Johnson And The Villagers"
INDEX 00 02:34:30
FILE "05 - The Dryer (Part 2).wav" WAVE
INDEX 01 00:00:00
TRACK 06 AUDIO
TITLE "Don't Tell Nothing About My Woman"
PERFORMER "Roy Lee Johnson And The Villagers"
INDEX 00 02:21:17
FILE "06 - Don't Tell Nothing About My Woman.wav" WAVE
INDEX 01 00:00:00
TRACK 07 AUDIO
TITLE "Razorback Circus"
PERFORMER "Roy Lee Johnson And The Villagers"
INDEX 00 02:30:41
FILE "07 - Razorback Circus.wav" WAVE
INDEX 01 00:00:00
TRACK 08 AUDIO
TITLE "Robot"
PERFORMER "Roy Lee Johnson And The Villagers"
INDEX 00 02:50:26
FILE "08 - Robot.wav" WAVE
INDEX 01 00:00:00
TRACK 09 AUDIO
TITLE "Midnight At Riley's"
PERFORMER "Roy Lee Johnson And The Villagers"
INDEX 00 02:29:62
FILE "09 - Midnight At Riley's.wav" WAVE
INDEX 01 00:00:00
TRACK 10 AUDIO
TITLE "The Dryer (Part 1)"
PERFORMER "Roy Lee Johnson And The Villagers"
INDEX 00 02:39:13
FILE "10 - The Dryer (Part 1).wav" WAVE
INDEX 01 00:00:00
 
Об исполнителе (группе)
From Wikipedia, the free encyclopedia
Roy Lee Johnson (born December 31, 1938) is an American R&B and soul songwriter, singer and guitarist. He is best known for his composition "Mr. Moonlight", which has been covered by many artists, including The Beatles.
He was born in Centralhatchee, Georgia,[1] and began playing guitar as a child. Around 1955, he joined his first band, The Brassettes, who included Robert Ward and who played local dances in and around Hogansville. After the band won a talent contest in Atlanta, they recorded Johnson's song, "Nobody Does Something For Nothing", for the small Stat label.[2] In the late 1950s, Johnson moved to Ohio, joining Ward in the Ohio Untouchables. However, by 1961 he had returned to Atlanta, and began playing in Piano Red's band, the Interns. His song "Mister Moonlight", which he had written in high school, was first recorded by Piano Red, credited as "Dr. Feelgood and the Interns", and released in 1962 as the b-side of "Doctor Feel-Good" on OKeh 4-7144.[1][3]
Johnson left the Interns in about 1963, and released his first solo record, "Too Many Tears", on OKeh that year. Neither it nor its follow-up, a reworked "Nobody Does Something For Nothing", were successful. However, in 1964 the Beatles covered "Mr. Moonlight" on the album Beatles for Sale (on Beatles '65 in the US), the success of which allowed Johnson to form his own band. He recorded three singles for Columbia Records in 1966-67, including "My Best Just Ain’t Good Enough", and another single for the Josie label. Otis Redding, for whom he had previously been a support act, then introduced him to Phil Walden, who recorded three singles with him in 1968 at the FAME Studios in Muscle Shoals, featuring the studio rhythm section. The singles included "Cheer Up, Daddy’s Coming Home" and "Take Me Back And Try Me", but again were not hits. He then formed a new band, Roy Lee Johnson & The Villagers, who recorded a self-titled album for Stax Records in 1973, influenced by the funk style of James Brown. However, the band broke up after the sudden death of 21-year old bass player Michael James.[1][3]
He continued to release occasional singles in the late 1970s and 1980s, setting up his own studio and continue to perform with various bands.[3] In the early 1990s, tracks he had recorded were released in England as the album All Night Long (Howzat LBW1). He released another album, When a Guitar Plays the Blues, in 2003.
 
Об альбоме (сборнике)
Review by Jason Ankeny
An unsung monster from the waning hours of the Stax empire, Roy Lee Johnson and the Villagers' eponymous LP is as funky as anything the label ever released. While its sound is unmistakably Stax -- its elegant yet earthy sensibility couldn't come from anywhere else -- the music expands on the formula via tight, hypnotic grooves and scorching guitar licks. The up-tempo "I Can't Stand This Loneliness" is the unqualified highlight, but there's not a bum note to be found here -- everything works, from the relentless opener "Patch It Up" to the lovely ballad "Something Special."
 
Состав
MUSICIANS: Roy Lee Johnson (guitar); Michael James (bass); Hosea Burcb (organ);
Ronald Williams (drums); Roger Hawkins (percussion); Barry Beckett (clavinet, track 6);
Pete Carr (guitar, tracks 3, 8); Ed Logan (flute, track 9)
HORNS: The Memphis Horns, arranged by Andrew Love, Wayne Jackson (tracks 1, 2, 5, 6, 9, 10);
The Muscle Shoals Brass, arranged by Harrison Galloway, Ben Cauley (tracks 4, 7, 8)
BACKGROUND VOCALS: Sandra Chalmers, Charlie Chalmers, Donna Rhodes
STUDIO: Muscle Shoals Sound Studios, Sheffield, Alabama
Приватный:
Нет (DHT включён)
Размер:
177.76 Мб (186,395,800 байт) » файлов: 24
Участники:
0 раздают, 0 качают (0 участников всего)
Внешние участники:
3 раздают, 1 качают (4 участников всего) [ Обновить ]
Есть вопросы - пишите личное сообщение пользователю M0p94ok.
05:04
58
Нет комментариев. Ваш будет первым!