Поиск

(Soul / Smooth Soul) [CD] Bobby Womack - Resurrection (w. Stevie Wonder, Keith Richards, Rod Stewart, Ron Wood...) - 1995, FLAC (image+.cue), lossless

(Soul / Smooth Soul) [CD] Bobby Womack - Resurrection (w. Stevie Wonder, Keith Richards, Rod Stewart, Ron Wood...) - 1995, FLAC (image+.cue), lossless
Треклист:
Bobby Womack — Resurrection (w. S. Wonder, K. Richards, R. Stewart, R. Wood, Ch. Watts, R. Isley)
Жанр: Soul / Smooth Soul
Носитель: CD
Страна-производитель диска (релиза): Japan
Год издания: 1995
Издатель (лейбл): Canyon Inyernational
Номер по каталогу: PCCY-00686
Страна исполнителя (группы): USA
Аудиокодек: FLAC (*.flac)
Тип рипа: image+.cue
Битрейт аудио: lossless
Продолжительность: 71:12
Источник (релизер): Од'Родр рип
Наличие сканов в содержимом раздачи: да
Треклист:
01. Good Ole Days 04:09
02. You Made Me Love Again 04:12
03. So High On Your Love 04:55
04. Don't Break Your Promise (Too Soon) 04:59
05. Forever Love 04:45
06. Please Change Your Mind 03:47
07. Tryin' Not To Break Down 05:27
08. Cousin Henry 06:13
09. Centerfield 04:34
10. Goin' Home 05:46
11. Walkin' On The Wild Side 05:00
12. Cry Myself To Sleep 03:45
13. Wish 05:14
14. Color Him Father 04:34
Bonus Track (for Japan Only):
15. Crossin' Over Partner 03:54
 
Лог создания рипа
Exact Audio Copy V1.0 beta 3 from 29. August 2011
Отчёт EAC об извлечении, выполненном 5. июня 2015, 13:39
Bobby Womack / Resurrection
Дисковод: Optiarc DVD RW AD-7203S Adapter: 0 ID: 0
Режим чтения : Достоверность
Использование точного потока : Да
Отключение кэша аудио : Да
Использование указателей C2 : Нет
Коррекция смещения при чтении : 48
Способность читать области Lead-in и Lead-out : Нет
Заполнение пропущенных сэмплов тишиной : Да
Удаление блоков с тишиной в начале и конце : Нет
При вычислениях CRC использовались нулевые сэмплы : Да
Интерфейс : Встроенный Win32-интерфейс для Win NT/2000
Выходной формат : Пользовательский кодировщик
Выбранный битрейт : 128 kBit/s
Качество : Высокий
Добавление ID3-тега : Нет
Утилита сжатия : C:\Program Files\Exact Audio Copy\Flac\flac.exe
Дополнительные параметры : -V -8 -T "Date=%year%" -T "Genre=%genre%" %source%
TOC извлечённого CD
Трек | Старт | Длительность | Начальный сектор | Конечный сектор
---------------------------------------------------------------------
1 | 0:00.00 | 4:09.00 | 0 | 18674
2 | 4:09.00 | 4:11.67 | 18675 | 37566
3 | 8:20.67 | 4:54.68 | 37567 | 59684
4 | 13:15.60 | 4:59.12 | 59685 | 82121
5 | 18:14.72 | 4:44.38 | 82122 | 103459
6 | 22:59.35 | 3:46.67 | 103460 | 120476
7 | 26:46.27 | 5:26.73 | 120477 | 144999
8 | 32:13.25 | 6:13.10 | 145000 | 172984
9 | 38:26.35 | 4:33.55 | 172985 | 193514
10 | 43:00.15 | 5:46.05 | 193515 | 219469
11 | 48:46.20 | 4:59.40 | 219470 | 241934
12 | 53:45.60 | 3:44.47 | 241935 | 258781
13 | 57:30.32 | 5:13.60 | 258782 | 282316
14 | 62:44.17 | 4:33.70 | 282317 | 302861
15 | 67:18.12 | 3:53.70 | 302862 | 320406
Характеристики диапазона извлечения и сообщения об ошибках
Выбранный диапазон
Имя файла F:\EAC\Bobby Womack - Resurrection\Bobby Womack - Resurrection\Bobby Womack - Resurrection.wav
Пиковый уровень 100.0 %
Скорость извлечения 4.5 X
Качество диапазона 100.0 %
CRC теста BA858890
CRC копии BA858890
Копирование... OK
Ошибок не произошло
AccurateRip: сводка
Трек 1 : извлечено точно (доверие 1) [7513E410] (AR v1)
Трек 2 : извлечено точно (доверие 1) [B941F267] (AR v1)
Трек 3 : извлечено точно (доверие 1) [4842EDD8] (AR v1)
Трек 4 : извлечено точно (доверие 1) [CC893BED] (AR v1)
Трек 5 : извлечено точно (доверие 1) [110D80DF] (AR v1)
Трек 6 : извлечено точно (доверие 1) [EB1A64EA] (AR v1)
Трек 7 : извлечено точно (доверие 1) [F7F30562] (AR v1)
Трек 8 : извлечено точно (доверие 1) [12F87258] (AR v1)
Трек 9 : извлечено точно (доверие 1) [20992D12] (AR v1)
Трек 10 : извлечено точно (доверие 1) [14023644] (AR v1)
Трек 11 : извлечено точно (доверие 1) [562D6378] (AR v1)
Трек 12 : извлечено точно (доверие 1) [C613119C] (AR v1)
Трек 13 : извлечено точно (доверие 1) [F0E4991E] (AR v1)
Трек 14 : извлечено точно (доверие 1) [9ABB6475] (AR v1)
Трек 15 : извлечено точно (доверие 1) [C1760B12] (AR v1)
Все треки извлечены точно
Конец отчёта
==== Контрольная сумма отчёта A65337B7A9637D1E58DA815BC564C36D29F0D74DAB81117C517B4690E2934E70 ====
 
Содержание индексной карты (.CUE)
REM GENRE Soul
REM DATE 1994
REM DISCID D310B00F
REM COMMENT "ExactAudioCopy v1.0b3"
PERFORMER "Bobby Womack"
TITLE "Resurrection"
FILE "Bobby Womack - Resurrection.flac" WAVE
TRACK 01 AUDIO
TITLE "Good Ole Days"
PERFORMER "Bobby Womack"
INDEX 01 00:00:00
TRACK 02 AUDIO
TITLE "You Made Me Love Again"
PERFORMER "Bobby Womack"
INDEX 00 04:07:27
INDEX 01 04:09:00
TRACK 03 AUDIO
TITLE "So High On Your Love"
PERFORMER "Bobby Womack"
INDEX 01 08:20:67
TRACK 04 AUDIO
TITLE "Don't Break Your Promise (Too Soon)"
PERFORMER "Bobby Womack"
INDEX 01 13:15:60
TRACK 05 AUDIO
TITLE "Forever Love"
PERFORMER "Bobby Womack"
INDEX 01 18:14:72
TRACK 06 AUDIO
TITLE "Please Change Your Mind"
PERFORMER "Bobby Womack"
INDEX 01 22:59:35
TRACK 07 AUDIO
TITLE "Tryin' Not To Break Down"
PERFORMER "Bobby Womack"
INDEX 01 26:46:27
TRACK 08 AUDIO
TITLE "Cousin Henry"
PERFORMER "Bobby Womack"
INDEX 01 32:13:25
TRACK 09 AUDIO
TITLE "Centerfield"
PERFORMER "Bobby Womack"
INDEX 00 38:25:00
INDEX 01 38:26:35
TRACK 10 AUDIO
TITLE "Goin' Home"
PERFORMER "Bobby Womack"
INDEX 01 43:00:15
TRACK 11 AUDIO
TITLE "Walkin' On The Wild Side"
PERFORMER "Bobby Womack"
INDEX 01 48:46:20
TRACK 12 AUDIO
TITLE "Cry Myself To Sleep"
PERFORMER "Bobby Womack"
INDEX 01 53:45:60
TRACK 13 AUDIO
TITLE "Wish"
PERFORMER "Bobby Womack"
INDEX 01 57:30:32
TRACK 14 AUDIO
TITLE "Color Him Father"
PERFORMER "Bobby Womack"
INDEX 01 62:44:17
TRACK 15 AUDIO
TITLE "Crossin' Over Partner"
PERFORMER "Bobby Womack"
INDEX 00 67:15:12
INDEX 01 67:18:12
Приватный:
Нет (DHT включён)
Размер:
530.30 Мб (556,062,189 байт) » файлов: 14
Участники:
0 раздают, 0 качают (0 участников всего)
Внешние участники:
7 раздают, 2 качают (9 участников всего) [ Обновить ]
Есть вопросы - пишите личное сообщение пользователю M0p94ok.
07:30
31
Нет комментариев. Ваш будет первым!