Поиск

(Soul, R&B) [CD] VA - Move On Up: The Very Best Of Northern Soul (3CD) - 2015, FLAC (tracks+.cue), lossless

(Soul, R&B) [CD] VA - Move On Up: The Very Best Of Northern Soul (3CD) - 2015, FLAC (tracks+.cue), lossless
Треклист:
Various - Move On Up: The Very Best Of Northern Soul (3CD)

Жанр: Soul, R&B
Носитель: CD
Год издания: 2015
Издатель (лейбл): Universal Music
Номер по каталогу: 5358725
Аудиокодек: FLAC (*.flac)
Тип рипа: tracks+.cue
Битрейт аудио: lossless
Продолжительность: 65:03 / 68:17 / 68:38
Источник (релизер): ruskaval
Наличие сканов в содержимом раздачи: да 
 
 
CD 1
Треклист:
01. Do I Love You (Indeed I Do) (Frank Wilson) (2:27)
02. Tainted Love (Gloria Jones) (2:11)
03. Moonlight Music and You (Laura Greene) (2:30)
04. This Love Starved Heart of Mine (It's Killing Me) (Marvin Gaye) (2:40)
05. Here I Go Again (Archie Bell and The Drells) (2:03)
06. Seven Days Too Long (Chuck Wood) (2:19)
07. Suspicion (The Originals) (3:04)
08. In Love (Tony Galla) (2:33)
09. Baby Reconsider (Leon Haywood) (2:24)
10. It's Just Gotta Be That Way (Bobby Angelle) (2:41)
11. Oh Baby Don't You Weep (Luther Ingram) (3:05)
12. Shoes (Bobby Bland) (2:45)
13. What Can I Do (George Kirby) (2:51)
14. I Surrender (Eddie Holman) (2:05)
15. Hand It Over (Chuck Jackson) (2:21)
16. Girl Don't Make Me Wait (Bunny Sigler) (2:21)
17. Is She in Your Town (Curtis Lee) (2:06)
18. Dance Dance Dance (The Casualeers) (2:40)
19. Before It's Too Late (Jackie Day) (2:33)
20. Love Factory (Eloise Laws) (3:23)
21. My Man, a Sweet Man (Millie Jackson) (2:31)
22. You Turned my Bitter Into Sweet (Mary Love) (2:23)
23. gone With the Wind Is my Love (Rita and The Tiaras) (3:09)
24. It'll Never Be Over for Me (Timi Yuro) (2:56)
25. Move on Up (live) (Curtis Myfield) (3:03)
 
 
Лог создания рипа
Exact Audio Copy V1.0 beta 4 from 7. December 2014
EAC extraction logfile from 30. March 2015, 22:41
Various Artists / Move on Up: The Very Best of Northern Soul (Disc 1)
Used drive : TSSTcorpCDDVDW SN-208FB Adapter: 1 ID: 0
Read mode : Secure
Utilize accurate stream : Yes
Defeat audio cache : Yes
Make use of C2 pointers : No
Read offset correction : 6
Overread into Lead-In and Lead-Out : No
Fill up missing offset samples with silence : Yes
Delete leading and trailing silent blocks : No
Null samples used in CRC calculations : Yes
Used interface : Native Win32 interface for Win NT & 2000
Gap handling : Appended to previous track
Used output format : User Defined Encoder
Selected bitrate : 1024 kBit/s
Quality : High
Add ID3 tag : No
Command line compressor : C:\Program Files (x86)\Kodeki za Glasbo\FLAC\flac.exe
Additional command line options : -8 -V -T "ARTIST=%artist%" -T "TITLE=%title%" -T "ALBUM=%albumtitle%" -T "DATE=%year%" -T "TRACKNUMBER=%tracknr%" -T "TOTALTRACKS=%numtracks%" -T "GENRE=%genre%" -T "ALBUMARTIST=%albumartist%" -T "ALBUM ARTIST=%albumartist%" -T "COMMENT=EAC Secure Mode, Test & Copy, AccurateRip, FLAC -8" %source%
TOC of the extracted CD
Track | Start | Length | Start sector | End sector
---------------------------------------------------------
1 | 0:00.00 | 2:27.17 | 0 | 11041
2 | 2:27.17 | 2:10.46 | 11042 | 20837
3 | 4:37.63 | 2:29.72 | 20838 | 32084
4 | 7:07.60 | 2:39.68 | 32085 | 44077
5 | 9:47.53 | 2:02.49 | 44078 | 53276
6 | 11:50.27 | 2:18.44 | 53277 | 63670
7 | 14:08.71 | 3:04.02 | 63671 | 77472
8 | 17:12.73 | 2:33.02 | 77473 | 88949
9 | 19:46.00 | 2:23.69 | 88950 | 99743
10 | 22:09.69 | 2:41.36 | 99744 | 111854
11 | 24:51.30 | 3:04.68 | 111855 | 125722
12 | 27:56.23 | 2:45.06 | 125723 | 138103
13 | 30:41.29 | 2:51.26 | 138104 | 150954
14 | 33:32.55 | 2:04.49 | 150955 | 160303
15 | 35:37.29 | 2:20.43 | 160304 | 170846
16 | 37:57.72 | 2:20.39 | 170847 | 181385
17 | 40:18.36 | 2:05.57 | 181386 | 190817
18 | 42:24.18 | 2:39.49 | 190818 | 202791
19 | 45:03.67 | 2:33.35 | 202792 | 214301
20 | 47:37.27 | 3:23.34 | 214302 | 229560
21 | 51:00.61 | 2:31.32 | 229561 | 240917
22 | 53:32.18 | 2:22.45 | 240918 | 251612
23 | 55:54.63 | 3:09.33 | 251613 | 265820
24 | 59:04.21 | 2:55.56 | 265821 | 279001
25 | 62:00.02 | 3:02.54 | 279002 | 292705
Track 1
Filename M:\3. my rip in preparation\3\VA - Move on Up, The Very Best of Northern Soul (2015) [FLAC] {3CD, Universal 5358725}\CD1\01 - Frank Wilson - Do I Love You (Indeed I Do).wav
Pre-gap length 0:00:02.00
Peak level 91.0 %
Extraction speed 2.3 X
Track quality 100.0 %
Test CRC B45FDF08
Copy CRC B45FDF08
Track not present in AccurateRip database
Copy OK
Track 2
Filename M:\3. my rip in preparation\3\VA - Move on Up, The Very Best of Northern Soul (2015) [FLAC] {3CD, Universal 5358725}\CD1\02 - Gloria Jones - Tainted Love.wav
Peak level 93.2 %
Extraction speed 2.4 X
Track quality 100.0 %
Test CRC BE132109
Copy CRC BE132109
Track not present in AccurateRip database
Copy OK
Track 3
Filename M:\3. my rip in preparation\3\VA - Move on Up, The Very Best of Northern Soul (2015) [FLAC] {3CD, Universal 5358725}\CD1\03 - Laura Greene - Moonlight Music and You.wav
Peak level 99.8 %
Extraction speed 2.6 X
Track quality 100.0 %
Test CRC 82B31BAE
Copy CRC 82B31BAE
Track not present in AccurateRip database
Copy OK
Track 4
Filename M:\3. my rip in preparation\3\VA - Move on Up, The Very Best of Northern Soul (2015) [FLAC] {3CD, Universal 5358725}\CD1\04 - Marvin Gaye - This Love Starved Heart of Mine (It's Killing Me).wav
Peak level 99.8 %
Extraction speed 2.8 X
Track quality 100.0 %
Test CRC C556B3FA
Copy CRC C556B3FA
Track not present in AccurateRip database
Copy OK
Track 5
Filename M:\3. my rip in preparation\3\VA - Move on Up, The Very Best of Northern Soul (2015) [FLAC] {3CD, Universal 5358725}\CD1\05 - Archie Bell and The Drells - Here I Go Again.wav
Peak level 99.8 %
Extraction speed 2.8 X
Track quality 100.0 %
Test CRC 2AE4B318
Copy CRC 2AE4B318
Track not present in AccurateRip database
Copy OK
Track 6
Filename M:\3. my rip in preparation\3\VA - Move on Up, The Very Best of Northern Soul (2015) [FLAC] {3CD, Universal 5358725}\CD1\06 - Chuck Wood - Seven Days Too Long.wav
Peak level 99.8 %
Extraction speed 3.0 X
Track quality 100.0 %
Test CRC 9B68AC6B
Copy CRC 9B68AC6B
Track not present in AccurateRip database
Copy OK
Track 7
Filename M:\3. my rip in preparation\3\VA - Move on Up, The Very Best of Northern Soul (2015) [FLAC] {3CD, Universal 5358725}\CD1\07 - The Originals - Suspicion.wav
Peak level 99.4 %
Extraction speed 3.3 X
Track quality 100.0 %
Test CRC BD2D8045
Copy CRC BD2D8045
Track not present in AccurateRip database
Copy OK
Track 8
Filename M:\3. my rip in preparation\3\VA - Move on Up, The Very Best of Northern Soul (2015) [FLAC] {3CD, Universal 5358725}\CD1\08 - Tony Galla - In Love.wav
Peak level 88.9 %
Extraction speed 2.4 X
Track quality 99.9 %
Test CRC D1F620D3
Copy CRC D1F620D3
Track not present in AccurateRip database
Copy OK
Track 9
Filename M:\3. my rip in preparation\3\VA - Move on Up, The Very Best of Northern Soul (2015) [FLAC] {3CD, Universal 5358725}\CD1\09 - Leon Haywood - Baby Reconsider.wav
Peak level 99.8 %
Extraction speed 3.2 X
Track quality 100.0 %
Test CRC C2724ED0
Copy CRC C2724ED0
Track not present in AccurateRip database
Copy OK
Track 10
Filename M:\3. my rip in preparation\3\VA - Move on Up, The Very Best of Northern Soul (2015) [FLAC] {3CD, Universal 5358725}\CD1\10 - Bobby Angelle - It's Just Gotta Be That Way.wav
Pre-gap length 0:00:00.24
Peak level 88.6 %
Extraction speed 3.4 X
Track quality 100.0 %
Test CRC 5EAC3981
Copy CRC 5EAC3981
Track not present in AccurateRip database
Copy OK
Track 11
Filename M:\3. my rip in preparation\3\VA - Move on Up, The Very Best of Northern Soul (2015) [FLAC] {3CD, Universal 5358725}\CD1\11 - Luther Ingram - Oh Baby Don't You Weep.wav
Peak level 89.0 %
Extraction speed 2.9 X
Track quality 99.9 %
Test CRC E06CF6D2
Copy CRC E06CF6D2
Track not present in AccurateRip database
Copy OK
Track 12
Filename M:\3. my rip in preparation\3\VA - Move on Up, The Very Best of Northern Soul (2015) [FLAC] {3CD, Universal 5358725}\CD1\12 - Bobby Bland - Shoes.wav
Peak level 91.6 %
Extraction speed 3.7 X
Track quality 100.0 %
Test CRC 9E3E6EA8
Copy CRC 9E3E6EA8
Track not present in AccurateRip database
Copy OK
Track 13
Filename M:\3. my rip in preparation\3\VA - Move on Up, The Very Best of Northern Soul (2015) [FLAC] {3CD, Universal 5358725}\CD1\13 - George Kirby - What Can I Do.wav
Peak level 99.8 %
Extraction speed 3.8 X
Track quality 100.0 %
Test CRC 7D1FB107
Copy CRC 7D1FB107
Track not present in AccurateRip database
Copy OK
Track 14
Filename M:\3. my rip in preparation\3\VA - Move on Up, The Very Best of Northern Soul (2015) [FLAC] {3CD, Universal 5358725}\CD1\14 - Eddie Holman - I Surrender.wav
Peak level 94.3 %
Extraction speed 3.6 X
Track quality 100.0 %
Test CRC CB2270FA
Copy CRC CB2270FA
Track not present in AccurateRip database
Copy OK
Track 15
Filename M:\3. my rip in preparation\3\VA - Move on Up, The Very Best of Northern Soul (2015) [FLAC] {3CD, Universal 5358725}\CD1\15 - Chuck Jackson - Hand It Over.wav
Peak level 94.3 %
Extraction speed 3.8 X
Track quality 100.0 %
Test CRC B95B40AD
Copy CRC B95B40AD
Track not present in AccurateRip database
Copy OK
Track 16
Filename M:\3. my rip in preparation\3\VA - Move on Up, The Very Best of Northern Soul (2015) [FLAC] {3CD, Universal 5358725}\CD1\16 - Bunny Sigler - Girl Don't Make Me Wait.wav
Peak level 87.7 %
Extraction speed 3.8 X
Track quality 100.0 %
Test CRC 8C234E0D
Copy CRC 8C234E0D
Track not present in AccurateRip database
Copy OK
Track 17
Filename M:\3. my rip in preparation\3\VA - Move on Up, The Very Best of Northern Soul (2015) [FLAC] {3CD, Universal 5358725}\CD1\17 - Curtis Lee - Is She in Your Town.wav
Peak level 99.8 %
Extraction speed 3.9 X
Track quality 100.0 %
Test CRC 4B5D5E42
Copy CRC 4B5D5E42
Track not present in AccurateRip database
Copy OK
Track 18
Filename M:\3. my rip in preparation\3\VA - Move on Up, The Very Best of Northern Soul (2015) [FLAC] {3CD, Universal 5358725}\CD1\18 - The Casualeers - Dance Dance Dance.wav
Peak level 99.8 %
Extraction speed 4.1 X
Track quality 100.0 %
Test CRC 698FA177
Copy CRC 698FA177
Track not present in AccurateRip database
Copy OK
Track 19
Filename M:\3. my rip in preparation\3\VA - Move on Up, The Very Best of Northern Soul (2015) [FLAC] {3CD, Universal 5358725}\CD1\19 - Jackie Day - Before It's Too Late.wav
Peak level 99.8 %
Extraction speed 4.1 X
Track quality 100.0 %
Test CRC C8E57199
Copy CRC C8E57199
Track not present in AccurateRip database
Copy OK
Track 20
Filename M:\3. my rip in preparation\3\VA - Move on Up, The Very Best of Northern Soul (2015) [FLAC] {3CD, Universal 5358725}\CD1\20 - Eloise Laws - Love Factory.wav
Peak level 99.8 %
Extraction speed 4.4 X
Track quality 100.0 %
Test CRC A2493056
Copy CRC A2493056
Track not present in AccurateRip database
Copy OK
Track 21
Filename M:\3. my rip in preparation\3\VA - Move on Up, The Very Best of Northern Soul (2015) [FLAC] {3CD, Universal 5358725}\CD1\21 - Millie Jackson - My Man, a Sweet Man.wav
Peak level 99.8 %
Extraction speed 4.3 X
Track quality 100.0 %
Test CRC 79C0D47B
Copy CRC 79C0D47B
Track not present in AccurateRip database
Copy OK
Track 22
Filename M:\3. my rip in preparation\3\VA - Move on Up, The Very Best of Northern Soul (2015) [FLAC] {3CD, Universal 5358725}\CD1\22 - Mary Love - You Turned my Bitter Into Sweet.wav
Peak level 99.8 %
Extraction speed 4.3 X
Track quality 100.0 %
Test CRC 3B88FBFF
Copy CRC 3B88FBFF
Track not present in AccurateRip database
Copy OK
Track 23
Filename M:\3. my rip in preparation\3\VA - Move on Up, The Very Best of Northern Soul (2015) [FLAC] {3CD, Universal 5358725}\CD1\23 - Rita and The Tiaras - gone With the Wind Is my Love.wav
Peak level 95.9 %
Extraction speed 4.6 X
Track quality 100.0 %
Test CRC 3D40908C
Copy CRC 3D40908C
Track not present in AccurateRip database
Copy OK
Track 24
Filename M:\3. my rip in preparation\3\VA - Move on Up, The Very Best of Northern Soul (2015) [FLAC] {3CD, Universal 5358725}\CD1\24 - Timi Yuro - It'll Never Be Over for Me.wav
Pre-gap length 0:00:00.85
Peak level 84.0 %
Extraction speed 4.6 X
Track quality 100.0 %
Test CRC 2EC28B12
Copy CRC 2EC28B12
Track not present in AccurateRip database
Copy OK
Track 25
Filename M:\3. my rip in preparation\3\VA - Move on Up, The Very Best of Northern Soul (2015) [FLAC] {3CD, Universal 5358725}\CD1\25 - Curtis Myfield - Move on Up (live).wav
Peak level 99.8 %
Extraction speed 4.7 X
Track quality 100.0 %
Test CRC A3757FD4
Copy CRC A3757FD4
Track not present in AccurateRip database
Copy OK
None of the tracks are present in the AccurateRip database
No errors occurred
End of status report
---- CUETools DB Plugin V2.1.4
[CTDB TOCID: .7jTz20j1WZezB5eur_UE_MKKZM-] found
Submit result: .7jTz20j1WZezB5eur_UE_MKKZM- has been confirmed
Track | CTDB Status
1 | (2/2) Accurately ripped
2 | (2/2) Accurately ripped
3 | (2/2) Accurately ripped
4 | (2/2) Accurately ripped
5 | (2/2) Accurately ripped
6 | (2/2) Accurately ripped
7 | (2/2) Accurately ripped
8 | (2/2) Accurately ripped
9 | (2/2) Accurately ripped
10 | (2/2) Accurately ripped
11 | (2/2) Accurately ripped
12 | (2/2) Accurately ripped
13 | (2/2) Accurately ripped
14 | (2/2) Accurately ripped
15 | (2/2) Accurately ripped
16 | (2/2) Accurately ripped
17 | (2/2) Accurately ripped
18 | (2/2) Accurately ripped
19 | (2/2) Accurately ripped
20 | (2/2) Accurately ripped
21 | (2/2) Accurately ripped
22 | (2/2) Accurately ripped
23 | (2/2) Accurately ripped
24 | (2/2) Accurately ripped
25 | (2/2) Accurately ripped
==== Log checksum 8FB6562C3D63F9F2A11E9C60D28CF5A0CF40616F6BC141604F02EF126ED4CD9C ====
 
Содержание индексной карты (.CUE)
REM GENRE Soul
REM DATE 2015
REM DISCID 670F3E19
REM COMMENT "ExactAudioCopy v1.0b4"
CATALOG 0600753587263
PERFORMER "Various Artists"
TITLE "Move on Up: The Very Best of Northern Soul (Disc 1)"
FILE "01 - Frank Wilson - Do I Love You (Indeed I Do).wav" WAVE
TRACK 01 AUDIO
TITLE "Do I Love You (Indeed I Do)"
PERFORMER "Frank Wilson"
ISRC USMO19582617
INDEX 01 00:00:00
FILE "02 - Gloria Jones - Tainted Love.wav" WAVE
TRACK 02 AUDIO
TITLE "Tainted Love"
PERFORMER "Gloria Jones"
ISRC USUMG0401155
INDEX 01 00:00:00
FILE "03 - Laura Greene - Moonlight Music and You.wav" WAVE
TRACK 03 AUDIO
TITLE "Moonlight Music and You"
PERFORMER "Laura Greene"
ISRC USRC16707588
INDEX 01 00:00:00
FILE "04 - Marvin Gaye - This Love Starved Heart of Mine (It's Killing Me).wav" WAVE
TRACK 04 AUDIO
TITLE "This Love Starved Heart of Mine (It's Killing Me)"
PERFORMER "Marvin Gaye"
ISRC USMO19400192
INDEX 01 00:00:00
FILE "05 - Archie Bell and The Drells - Here I Go Again.wav" WAVE
TRACK 05 AUDIO
TITLE "Here I Go Again"
PERFORMER "Archie Bell and The Drells"
ISRC USAT20202709
INDEX 01 00:00:00
FILE "06 - Chuck Wood - Seven Days Too Long.wav" WAVE
TRACK 06 AUDIO
TITLE "Seven Days Too Long"
PERFORMER "Chuck Wood"
ISRC GBAYE6600079
INDEX 01 00:00:00
FILE "07 - The Originals - Suspicion.wav" WAVE
TRACK 07 AUDIO
TITLE "Suspicion"
PERFORMER "The Originals"
ISRC USMO19984771
INDEX 01 00:00:00
FILE "08 - Tony Galla - In Love.wav" WAVE
TRACK 08 AUDIO
TITLE "In Love"
PERFORMER "Tony Galla"
ISRC GBAGW9812461
INDEX 01 00:00:00
FILE "09 - Leon Haywood - Baby Reconsider.wav" WAVE
TRACK 09 AUDIO
TITLE "Baby Reconsider"
PERFORMER "Leon Haywood"
ISRC USGZ21454884
INDEX 01 00:00:00
TRACK 10 AUDIO
TITLE "It's Just Gotta Be That Way"
PERFORMER "Bobby Angelle"
ISRC GBBHN0200114
INDEX 00 02:23:51
FILE "10 - Bobby Angelle - It's Just Gotta Be That Way.wav" WAVE
INDEX 01 00:00:00
FILE "11 - Luther Ingram - Oh Baby Don't You Weep.wav" WAVE
TRACK 11 AUDIO
TITLE "Oh Baby Don't You Weep"
PERFORMER "Luther Ingram"
ISRC USMR51571888
INDEX 01 00:00:00
FILE "12 - Bobby Bland - Shoes.wav" WAVE
TRACK 12 AUDIO
TITLE "Shoes"
PERFORMER "Bobby Bland"
ISRC USMC16648640
INDEX 01 00:00:00
FILE "13 - George Kirby - What Can I Do.wav" WAVE
TRACK 13 AUDIO
TITLE "What Can I Do"
PERFORMER "George Kirby"
ISRC USUM71311815
INDEX 01 00:00:00
FILE "14 - Eddie Holman - I Surrender.wav" WAVE
TRACK 14 AUDIO
TITLE "I Surrender"
PERFORMER "Eddie Holman"
ISRC USMC10346235
INDEX 01 00:00:00
FILE "15 - Chuck Jackson - Hand It Over.wav" WAVE
TRACK 15 AUDIO
TITLE "Hand It Over"
PERFORMER "Chuck Jackson"
ISRC USACU0501679
INDEX 01 00:00:00
FILE "16 - Bunny Sigler - Girl Don't Make Me Wait.wav" WAVE
TRACK 16 AUDIO
TITLE "Girl Don't Make Me Wait"
PERFORMER "Bunny Sigler"
ISRC USA170840010
INDEX 01 00:00:00
FILE "17 - Curtis Lee - Is She in Your Town.wav" WAVE
TRACK 17 AUDIO
TITLE "Is She in Your Town"
PERFORMER "Curtis Lee"
ISRC GBBHN0400362
INDEX 01 00:00:00
FILE "18 - The Casualeers - Dance Dance Dance.wav" WAVE
TRACK 18 AUDIO
TITLE "Dance Dance Dance"
PERFORMER "The Casualeers"
ISRC GBAYE6600127
INDEX 01 00:00:00
FILE "19 - Jackie Day - Before It's Too Late.wav" WAVE
TRACK 19 AUDIO
TITLE "Before It's Too Late"
PERFORMER "Jackie Day"
ISRC GBBHN9200539
INDEX 01 00:00:00
FILE "20 - Eloise Laws - Love Factory.wav" WAVE
TRACK 20 AUDIO
TITLE "Love Factory"
PERFORMER "Eloise Laws"
ISRC GBBHN9200539
INDEX 01 00:00:00
FILE "21 - Millie Jackson - My Man, a Sweet Man.wav" WAVE
TRACK 21 AUDIO
TITLE "My Man, a Sweet Man"
PERFORMER "Millie Jackson"
ISRC GBBHN9400003
INDEX 01 00:00:00
FILE "22 - Mary Love - You Turned my Bitter Into Sweet.wav" WAVE
TRACK 22 AUDIO
TITLE "You Turned my Bitter Into Sweet "
PERFORMER "Mary Love"
ISRC GBBHN9200537
INDEX 01 00:00:00
FILE "23 - Rita and The Tiaras - gone With the Wind Is my Love.wav" WAVE
TRACK 23 AUDIO
TITLE "gone With the Wind Is my Love"
PERFORMER "Rita and The Tiaras"
ISRC GBBHN0900028
INDEX 01 00:00:00
TRACK 24 AUDIO
TITLE "It'll Never Be Over for Me"
PERFORMER "Timi Yuro"
ISRC USEM34900363
INDEX 00 03:08:44
FILE "24 - Timi Yuro - It'll Never Be Over for Me.wav" WAVE
INDEX 01 00:00:00
FILE "25 - Curtis Myfield - Move on Up (live).wav" WAVE
TRACK 25 AUDIO
TITLE "Move on Up (live)"
PERFORMER "Curtis Myfield"
ISRC GBAWA0511889
INDEX 01 00:00:00
 
CD 2
Треклист:
01. The Night (Frankie Valli and The Four Seasons) (3:22)
02. Back Street (Edwin Starr) (2:46)
03. Soul Galore (Jackie wilson) (2:46)
04. Out on the Floor (Dobie Gray) (2:53)
05. Gotta Find Me Somebody (The Vel-Vets) (2:20)
06. If This Is Love (I'd Rather Be Lonely) (The Precisions) (2:44)
07. Backfield in Motion (Mel & Tim) (2:32)
08. I Got a Feeling (Barbara Randolph) (3:02)
09. Opn the Door to Your Heart (Darrell Banks) (2:34)
10. Blowing my Mind to Pieces (Bob Relf) (1:50)
11. You Didn't Say a Word (Yvonne Baker) (2:37)
12. I Just Can Live my Life (Without You Babe) (Linda Jones) (2:29)
13. You Can Count on Me (Sammy Davis Jr) (2:09)
14. 1-2-3 (Len Barry) (2:21)
15. Let's Wade in the Water (Marlena shaw) (3:27)
16. Can't Satisfy (The Impressions) (2:35)
17. Landslide (Tony Clarke) (2:14)
18. Festival Time (San Remo Golden Strings) (2:35)
19. Love Runs Out (Willie Hutch) (2:39)
20. Tell Me It's Just a Rumor Baby (The Isley Brothers) (2:55)
21. Love, Love, Love (Bobby Hebb) (2:52)
22. It's All Up to You (The Dells) (4:01)
23. It's Better to Have (and Don't Need) (Don Covay) (3:06)
24. Afternoon of the Rhino (Mike Post Coalition) (2:19)
25. Everything Is Gonna Be Alright (P.P. Arnold) (3:09)
 
 
Лог создания рипа
Exact Audio Copy V1.0 beta 4 from 7. December 2014
EAC extraction logfile from 30. March 2015, 23:46
Various Artists / Move on Up: The Very Best of Northern Soul (Disc 2)
Used drive : TSSTcorpCDDVDW SN-208FB Adapter: 1 ID: 0
Read mode : Secure
Utilize accurate stream : Yes
Defeat audio cache : Yes
Make use of C2 pointers : No
Read offset correction : 6
Overread into Lead-In and Lead-Out : No
Fill up missing offset samples with silence : Yes
Delete leading and trailing silent blocks : No
Null samples used in CRC calculations : Yes
Used interface : Native Win32 interface for Win NT & 2000
Gap handling : Appended to previous track
Used output format : User Defined Encoder
Selected bitrate : 1024 kBit/s
Quality : High
Add ID3 tag : No
Command line compressor : C:\Program Files (x86)\Kodeki za Glasbo\FLAC\flac.exe
Additional command line options : -8 -V -T "ARTIST=%artist%" -T "TITLE=%title%" -T "ALBUM=%albumtitle%" -T "DATE=%year%" -T "TRACKNUMBER=%tracknr%" -T "TOTALTRACKS=%numtracks%" -T "GENRE=%genre%" -T "ALBUMARTIST=%albumartist%" -T "ALBUM ARTIST=%albumartist%" -T "COMMENT=EAC Secure Mode, Test & Copy, AccurateRip, FLAC -8" %source%
TOC of the extracted CD
Track | Start | Length | Start sector | End sector
---------------------------------------------------------
1 | 0:00.00 | 3:22.02 | 0 | 15151
2 | 3:22.02 | 2:46.25 | 15152 | 27626
3 | 6:08.27 | 2:45.48 | 27627 | 40049
4 | 8:54.00 | 2:53.04 | 40050 | 53028
5 | 11:47.04 | 2:19.67 | 53029 | 63520
6 | 14:06.71 | 2:44.04 | 63521 | 75824
7 | 16:51.00 | 2:32.19 | 75825 | 87243
8 | 19:23.19 | 3:02.32 | 87244 | 100925
9 | 22:25.51 | 2:34.25 | 100926 | 112500
10 | 25:00.01 | 1:49.57 | 112501 | 120732
11 | 26:49.58 | 2:36.59 | 120733 | 132491
12 | 29:26.42 | 2:29.18 | 132492 | 143684
13 | 31:55.60 | 2:08.61 | 143685 | 153345
14 | 34:04.46 | 2:21.16 | 153346 | 163936
15 | 36:25.62 | 3:26.67 | 163937 | 179453
16 | 39:52.54 | 2:35.36 | 179454 | 191114
17 | 42:28.15 | 2:13.42 | 191115 | 201131
18 | 44:41.57 | 2:35.22 | 201132 | 212778
19 | 47:17.04 | 2:38.54 | 212779 | 224682
20 | 49:55.58 | 2:55.29 | 224683 | 237836
21 | 52:51.12 | 2:52.03 | 237837 | 250739
22 | 55:43.15 | 4:00.56 | 250740 | 268795
23 | 59:43.71 | 3:06.04 | 268796 | 282749
24 | 62:50.00 | 2:18.39 | 282750 | 293138
25 | 65:08.39 | 3:08.50 | 293139 | 307288
Track 1
Filename M:\3. my rip in preparation\3\VA - Move on Up, The Very Best of Northern Soul (2015) [FLAC] {3CD, Universal 5358725}\CD2\01 - Frankie Valli and The Four Seasons - The Night.wav
Pre-gap length 0:00:02.00
Peak level 89.0 %
Extraction speed 2.5 X
Track quality 100.0 %
Test CRC B000538E
Copy CRC B000538E
Track not present in AccurateRip database
Copy OK
Track 2
Filename M:\3. my rip in preparation\3\VA - Move on Up, The Very Best of Northern Soul (2015) [FLAC] {3CD, Universal 5358725}\CD2\02 - Edwin Starr - Back Street.wav
Peak level 99.8 %
Extraction speed 2.0 X
Track quality 99.9 %
Test CRC 3D7CFCA1
Copy CRC 3D7CFCA1
Track not present in AccurateRip database
Copy OK
Track 3
Filename M:\3. my rip in preparation\3\VA - Move on Up, The Very Best of Northern Soul (2015) [FLAC] {3CD, Universal 5358725}\CD2\03 - Jackie wilson - Soul Galore.wav
Peak level 99.8 %
Extraction speed 2.1 X
Track quality 99.9 %
Test CRC 56EADB61
Copy CRC 56EADB61
Track not present in AccurateRip database
Copy OK
Track 4
Filename M:\3. my rip in preparation\3\VA - Move on Up, The Very Best of Northern Soul (2015) [FLAC] {3CD, Universal 5358725}\CD2\04 - Dobie Gray - Out on the Floor.wav
Pre-gap length 0:00:00.04
Peak level 99.8 %
Extraction speed 2.9 X
Track quality 100.0 %
Test CRC 939DB6D0
Copy CRC 939DB6D0
Track not present in AccurateRip database
Copy OK
Track 5
Filename M:\3. my rip in preparation\3\VA - Move on Up, The Very Best of Northern Soul (2015) [FLAC] {3CD, Universal 5358725}\CD2\05 - The Vel-Vets - Gotta Find Me Somebody.wav
Pre-gap length 0:00:00.12
Peak level 84.0 %
Extraction speed 2.9 X
Track quality 100.0 %
Test CRC 6C1A1AD7
Copy CRC 6C1A1AD7
Track not present in AccurateRip database
Copy OK
Track 6
Filename M:\3. my rip in preparation\3\VA - Move on Up, The Very Best of Northern Soul (2015) [FLAC] {3CD, Universal 5358725}\CD2\06 - The Precisions - If This Is Love (I'd Rather Be Lonely).wav
Peak level 90.4 %
Extraction speed 3.1 X
Track quality 100.0 %
Test CRC 8BE52D15
Copy CRC 8BE52D15
Track not present in AccurateRip database
Copy OK
Track 7
Filename M:\3. my rip in preparation\3\VA - Move on Up, The Very Best of Northern Soul (2015) [FLAC] {3CD, Universal 5358725}\CD2\07 - Mel & Tim - Backfield in Motion.wav
Peak level 78.5 %
Extraction speed 3.2 X
Track quality 100.0 %
Test CRC 2D223569
Copy CRC 2D223569
Track not present in AccurateRip database
Copy OK
Track 8
Filename M:\3. my rip in preparation\3\VA - Move on Up, The Very Best of Northern Soul (2015) [FLAC] {3CD, Universal 5358725}\CD2\08 - Barbara Randolph - I Got a Feeling.wav
Peak level 94.3 %
Extraction speed 3.4 X
Track quality 100.0 %
Test CRC 67174F4C
Copy CRC 67174F4C
Track not present in AccurateRip database
Copy OK
Track 9
Filename M:\3. my rip in preparation\3\VA - Move on Up, The Very Best of Northern Soul (2015) [FLAC] {3CD, Universal 5358725}\CD2\09 - Darrell Banks - Opn the Door to Your Heart.wav
Peak level 99.8 %
Extraction speed 2.6 X
Track quality 99.9 %
Test CRC 32B511E8
Copy CRC 32B511E8
Track not present in AccurateRip database
Copy OK
Track 10
Filename M:\3. my rip in preparation\3\VA - Move on Up, The Very Best of Northern Soul (2015) [FLAC] {3CD, Universal 5358725}\CD2\10 - Bob Relf - Blowing my Mind to Pieces.wav
Peak level 96.6 %
Extraction speed 3.2 X
Track quality 100.0 %
Test CRC E85D7227
Copy CRC E85D7227
Track not present in AccurateRip database
Copy OK
Track 11
Filename M:\3. my rip in preparation\3\VA - Move on Up, The Very Best of Northern Soul (2015) [FLAC] {3CD, Universal 5358725}\CD2\11 - Yvonne Baker - You Didn't Say a Word.wav
Peak level 97.0 %
Extraction speed 3.6 X
Track quality 100.0 %
Test CRC D21D34A7
Copy CRC D21D34A7
Track not present in AccurateRip database
Copy OK
Track 12
Filename M:\3. my rip in preparation\3\VA - Move on Up, The Very Best of Northern Soul (2015) [FLAC] {3CD, Universal 5358725}\CD2\12 - Linda Jones - I Just Can Live my Life (Without You Babe).wav
Peak level 99.8 %
Extraction speed 3.6 X
Track quality 100.0 %
Test CRC 2129A644
Copy CRC 2129A644
Track not present in AccurateRip database
Copy OK
Track 13
Filename M:\3. my rip in preparation\3\VA - Move on Up, The Very Best of Northern Soul (2015) [FLAC] {3CD, Universal 5358725}\CD2\13 - Sammy Davis Jr - You Can Count on Me.wav
Peak level 97.0 %
Extraction speed 2.6 X
Track quality 99.9 %
Test CRC 86399721
Copy CRC 86399721
Track not present in AccurateRip database
Copy OK
Track 14
Filename M:\3. my rip in preparation\3\VA - Move on Up, The Very Best of Northern Soul (2015) [FLAC] {3CD, Universal 5358725}\CD2\14 - Len Barry - 1-2-3.wav
Peak level 88.1 %
Extraction speed 3.7 X
Track quality 100.0 %
Test CRC 92740BCA
Copy CRC 92740BCA
Track not present in AccurateRip database
Copy OK
Track 15
Filename M:\3. my rip in preparation\3\VA - Move on Up, The Very Best of Northern Soul (2015) [FLAC] {3CD, Universal 5358725}\CD2\15 - Marlena shaw - Let's Wade in the Water.wav
Peak level 95.3 %
Extraction speed 4.0 X
Track quality 100.0 %
Test CRC 4B66A2D5
Copy CRC 4B66A2D5
Track not present in AccurateRip database
Copy OK
Track 16
Filename M:\3. my rip in preparation\3\VA - Move on Up, The Very Best of Northern Soul (2015) [FLAC] {3CD, Universal 5358725}\CD2\16 - The Impressions - Can't Satisfy.wav
Peak level 97.2 %
Extraction speed 3.9 X
Track quality 100.0 %
Test CRC 73E599D5
Copy CRC 73E599D5
Track not present in AccurateRip database
Copy OK
Track 17
Filename M:\3. my rip in preparation\3\VA - Move on Up, The Very Best of Northern Soul (2015) [FLAC] {3CD, Universal 5358725}\CD2\17 - Tony Clarke - Landslide.wav
Peak level 99.8 %
Extraction speed 3.8 X
Track quality 100.0 %
Test CRC 436805DC
Copy CRC 436805DC
Track not present in AccurateRip database
Copy OK
Track 18
Filename M:\3. my rip in preparation\3\VA - Move on Up, The Very Best of Northern Soul (2015) [FLAC] {3CD, Universal 5358725}\CD2\18 - San Remo Golden Strings - Festival Time.wav
Peak level 99.8 %
Extraction speed 4.1 X
Track quality 100.0 %
Test CRC D0D55DCF
Copy CRC D0D55DCF
Track not present in AccurateRip database
Copy OK
Track 19
Filename M:\3. my rip in preparation\3\VA - Move on Up, The Very Best of Northern Soul (2015) [FLAC] {3CD, Universal 5358725}\CD2\19 - Willie Hutch - Love Runs Out.wav
Peak level 99.8 %
Extraction speed 3.2 X
Track quality 99.9 %
Test CRC 2EF57501
Copy CRC 2EF57501
Track not present in AccurateRip database
Copy OK
Track 20
Filename M:\3. my rip in preparation\3\VA - Move on Up, The Very Best of Northern Soul (2015) [FLAC] {3CD, Universal 5358725}\CD2\20 - The Isley Brothers - Tell Me It's Just a Rumor Baby.wav
Peak level 93.0 %
Extraction speed 4.3 X
Track quality 100.0 %
Test CRC 0E709058
Copy CRC 0E709058
Track not present in AccurateRip database
Copy OK
Track 21
Filename M:\3. my rip in preparation\3\VA - Move on Up, The Very Best of Northern Soul (2015) [FLAC] {3CD, Universal 5358725}\CD2\21 - Bobby Hebb - Love, Love, Love.wav
Peak level 99.5 %
Extraction speed 4.4 X
Track quality 100.0 %
Test CRC 802B491E
Copy CRC 802B491E
Track not present in AccurateRip database
Copy OK
Track 22
Filename M:\3. my rip in preparation\3\VA - Move on Up, The Very Best of Northern Soul (2015) [FLAC] {3CD, Universal 5358725}\CD2\22 - The Dells - It's All Up to You.wav
Peak level 99.8 %
Extraction speed 4.7 X
Track quality 100.0 %
Test CRC 03D2105F
Copy CRC 03D2105F
Track not present in AccurateRip database
Copy OK
Track 23
Filename M:\3. my rip in preparation\3\VA - Move on Up, The Very Best of Northern Soul (2015) [FLAC] {3CD, Universal 5358725}\CD2\23 - Don Covay - It's Better to Have (and Don't Need).wav
Peak level 94.3 %
Extraction speed 4.7 X
Track quality 100.0 %
Test CRC 7573ACE7
Copy CRC 7573ACE7
Track not present in AccurateRip database
Copy OK
Track 24
Filename M:\3. my rip in preparation\3\VA - Move on Up, The Very Best of Northern Soul (2015) [FLAC] {3CD, Universal 5358725}\CD2\24 - Mike Post Coalition - Afternoon of the Rhino.wav
Peak level 91.7 %
Extraction speed 4.4 X
Track quality 100.0 %
Test CRC 906AF585
Copy CRC 906AF585
Track not present in AccurateRip database
Copy OK
Track 25
Filename M:\3. my rip in preparation\3\VA - Move on Up, The Very Best of Northern Soul (2015) [FLAC] {3CD, Universal 5358725}\CD2\25 - P.P. Arnold - Everything Is Gonna Be Alright.wav
Pre-gap length 0:00:00.74
Peak level 99.8 %
Extraction speed 4.8 X
Track quality 100.0 %
Test CRC 157A6F86
Copy CRC 157A6F86
Track not present in AccurateRip database
Copy OK
None of the tracks are present in the AccurateRip database
No errors occurred
End of status report
---- CUETools DB Plugin V2.1.4
[CTDB TOCID: X2hkTvXxlMu8sPKBhuhODbRIvVE-] found
Submit result: X2hkTvXxlMu8sPKBhuhODbRIvVE- has been confirmed
Track | CTDB Status
1 | (2/2) Accurately ripped
2 | (2/2) Accurately ripped
3 | (2/2) Accurately ripped
4 | (2/2) Accurately ripped
5 | (2/2) Accurately ripped
6 | (2/2) Accurately ripped
7 | (2/2) Accurately ripped
8 | (2/2) Accurately ripped
9 | (2/2) Accurately ripped
10 | (2/2) Accurately ripped
11 | (2/2) Accurately ripped
12 | (2/2) Accurately ripped
13 | (2/2) Accurately ripped
14 | (2/2) Accurately ripped
15 | (2/2) Accurately ripped
16 | (2/2) Accurately ripped
17 | (2/2) Accurately ripped
18 | (2/2) Accurately ripped
19 | (2/2) Accurately ripped
20 | (2/2) Accurately ripped
21 | (2/2) Accurately ripped
22 | (2/2) Accurately ripped
23 | (2/2) Accurately ripped
24 | (2/2) Accurately ripped
25 | (2/2) Accurately ripped
==== Log checksum AD7A16D5B71F8A02B5FFDCABB68425B8A469240D152D44062BB25978FA671B7C ====
 
Содержание индексной карты (.CUE)
REM GENRE Soul
REM DATE 2015
REM DISCID 71100119
REM COMMENT "ExactAudioCopy v1.0b4"
CATALOG 0600753587270
PERFORMER "Various Artists"
TITLE "Move on Up: The Very Best of Northern Soul (Disc 2)"
FILE "01 - Frankie Valli and The Four Seasons - The Night.wav" WAVE
TRACK 01 AUDIO
TITLE "The Night"
PERFORMER "Frankie Valli and The Four Seasons"
ISRC USUM70828404
INDEX 01 00:00:00
FILE "02 - Edwin Starr - Back Street.wav" WAVE
TRACK 02 AUDIO
TITLE "Back Street"
PERFORMER "Edwin Starr"
ISRC USMO16584725
INDEX 01 00:00:00
FILE "03 - Jackie wilson - Soul Galore.wav" WAVE
TRACK 03 AUDIO
TITLE "Soul Galore"
PERFORMER "Jackie wilson"
ISRC GBBPJ9800358
INDEX 01 00:00:00
TRACK 04 AUDIO
TITLE "Out on the Floor"
PERFORMER "Dobie Gray"
ISRC GBBPJ9800358
INDEX 00 02:45:45
FILE "04 - Dobie Gray - Out on the Floor.wav" WAVE
INDEX 01 00:00:00
TRACK 05 AUDIO
TITLE "Gotta Find Me Somebody"
PERFORMER "The Vel-Vets"
ISRC GBUM71009716
INDEX 00 02:52:70
FILE "05 - The Vel-Vets - Gotta Find Me Somebody.wav" WAVE
INDEX 01 00:00:00
FILE "06 - The Precisions - If This Is Love (I'd Rather Be Lonely).wav" WAVE
TRACK 06 AUDIO
TITLE "If This Is Love (I'd Rather Be Lonely)"
PERFORMER "The Precisions"
ISRC GBAGW9812465
INDEX 01 00:00:00
FILE "07 - Mel & Tim - Backfield in Motion.wav" WAVE
TRACK 07 AUDIO
TITLE "Backfield in Motion"
PERFORMER "Mel & Tim"
ISRC USDEI6901419
INDEX 01 00:00:00
FILE "08 - Barbara Randolph - I Got a Feeling.wav" WAVE
TRACK 08 AUDIO
TITLE "I Got a Feeling"
PERFORMER "Barbara Randolph"
ISRC USMO16700482
INDEX 01 00:00:00
FILE "09 - Darrell Banks - Opn the Door to Your Heart.wav" WAVE
TRACK 09 AUDIO
TITLE "Opn the Door to Your Heart"
PERFORMER "Darrell Banks"
ISRC USAT20110244
INDEX 01 00:00:00
FILE "10 - Bob Relf - Blowing my Mind to Pieces.wav" WAVE
TRACK 10 AUDIO
TITLE "Blowing my Mind to Pieces"
PERFORMER "Bob Relf"
ISRC UK8CQ1400003
INDEX 01 00:00:00
FILE "11 - Yvonne Baker - You Didn't Say a Word.wav" WAVE
TRACK 11 AUDIO
TITLE "You Didn't Say a Word"
PERFORMER "Yvonne Baker"
ISRC USA170840080
INDEX 01 00:00:00
FILE "12 - Linda Jones - I Just Can Live my Life (Without You Babe).wav" WAVE
TRACK 12 AUDIO
TITLE "I Just Can Live my Life (Without You Babe)"
PERFORMER "Linda Jones"
ISRC USWB11403226
INDEX 01 00:00:00
FILE "13 - Sammy Davis Jr - You Can Count on Me.wav" WAVE
TRACK 13 AUDIO
TITLE "You Can Count on Me"
PERFORMER "Sammy Davis Jr"
ISRC USIR20200212
INDEX 01 00:00:00
FILE "14 - Len Barry - 1-2-3.wav" WAVE
TRACK 14 AUDIO
TITLE "1-2-3"
PERFORMER "Len Barry"
ISRC USMC16516297
INDEX 01 00:00:00
FILE "15 - Marlena shaw - Let's Wade in the Water.wav" WAVE
TRACK 15 AUDIO
TITLE "Let's Wade in the Water"
PERFORMER "Marlena shaw"
ISRC USMC10200861
INDEX 01 00:00:00
FILE "16 - The Impressions - Can't Satisfy.wav" WAVE
TRACK 16 AUDIO
TITLE "Can't Satisfy"
PERFORMER "The Impressions"
ISRC USMC16648280
INDEX 01 00:00:00
FILE "17 - Tony Clarke - Landslide.wav" WAVE
TRACK 17 AUDIO
TITLE "Landslide"
PERFORMER "Tony Clarke"
ISRC USMC10110969
INDEX 01 00:00:00
FILE "18 - San Remo Golden Strings - Festival Time.wav" WAVE
TRACK 18 AUDIO
TITLE "Festival Time"
PERFORMER "San Remo Golden Strings"
ISRC USMC10110969
INDEX 01 00:00:00
FILE "19 - Willie Hutch - Love Runs Out.wav" WAVE
TRACK 19 AUDIO
TITLE "Love Runs Out"
PERFORMER "Willie Hutch"
ISRC USMC10346250
INDEX 01 00:00:00
FILE "20 - The Isley Brothers - Tell Me It's Just a Rumor Baby.wav" WAVE
TRACK 20 AUDIO
TITLE "Tell Me It's Just a Rumor Baby"
PERFORMER "The Isley Brothers"
ISRC USMO16782778
INDEX 01 00:00:00
FILE "21 - Bobby Hebb - Love, Love, Love.wav" WAVE
TRACK 21 AUDIO
TITLE "Love, Love, Love"
PERFORMER "Bobby Hebb"
ISRC USIR20110300
INDEX 01 00:00:00
FILE "22 - The Dells - It's All Up to You.wav" WAVE
TRACK 22 AUDIO
TITLE "It's All Up to You"
PERFORMER "The Dells"
ISRC USUM70504425
INDEX 01 00:00:00
FILE "23 - Don Covay - It's Better to Have (and Don't Need).wav" WAVE
TRACK 23 AUDIO
TITLE "It's Better to Have (and Don't Need)"
PERFORMER "Don Covay"
ISRC USIR20110305
INDEX 01 00:00:00
FILE "24 - Mike Post Coalition - Afternoon of the Rhino.wav" WAVE
TRACK 24 AUDIO
TITLE "Afternoon of the Rhino"
PERFORMER "Mike Post Coalition"
ISRC USWB10301469
INDEX 01 00:00:00
TRACK 25 AUDIO
TITLE "Everything Is Gonna Be Alright"
PERFORMER "P.P. Arnold"
ISRC GBAWA9973254
INDEX 00 02:17:58
FILE "25 - P.P. Arnold - Everything Is Gonna Be Alright.wav" WAVE
INDEX 01 00:00:00
 
CD 3
Треклист:
01. Turnin' my Heartbeat Up (The M.V.P.'S) (2:15)
02. There's a Ghost in my House (R. Dean Taylor) (2:24)
03. Soul Time (Shirley Ellis) (2:38)
04. Just a Little Misunderstanding (The Contours) (2:42)
05. The Snake (Al Wilson) (3:30)
06. Ain't no Mountain High Enough (Tammi Terrell) (2:27)
07. I'll Turn to Stone (Four Tops) (2:26)
08. If It's All the Same to You Babe (Luther Ingram) (2:47)
09. Right Track (Billy Butler) (2:25)
10. There Was I Time (Gene Chandler) (3:30)
11. You Don't Have to Be a Tower of Strength (Gloria Lynne) (2:15)
12. Better Use Your Head (Little Anthony & The Imperials) (2:52)
13. Uptight (Everything's Alright) (Stevie Wonder) (2:52)
14. Heaven Must Have Sent You (The Elgins) (2:52)
15. What Is This (Bobby Womack) (2:32)
16. Sliced Tomatoes (Just Brothers) (2:20)
17. Ain't There Something Money Can't Buy (Young Holt Unlimited) (3:52)
18. Every Time I See You, I Go Wild (J.J. Barnes) (2:55)
19. Two Can Have a Party (Tammi Terrell) (2:33)
20. Wade in the Water (Ramsey Lewis Trio) (3:48)
21. Cool Jerk (The Capitols) (2:32)
22. Our Love Is Getting Stronger (Jason Knight) (2:11)
23. Get Ready (The Temptations) (2:36)
24. Long After Tonight Is All Over (Jimmy Radcliffe) (2:39)
25. I'm on my Way (Dean Parrish) (2:43)
 
 
Лог создания рипа
Exact Audio Copy V1.0 beta 4 from 7. December 2014
EAC extraction logfile from 31. March 2015, 14:08
Various Artists / Move on Up: The Very Best of Northern Soul (Disc 3)
Used drive : TSSTcorpCDDVDW SN-208FB Adapter: 1 ID: 0
Read mode : Secure
Utilize accurate stream : Yes
Defeat audio cache : Yes
Make use of C2 pointers : No
Read offset correction : 6
Overread into Lead-In and Lead-Out : No
Fill up missing offset samples with silence : Yes
Delete leading and trailing silent blocks : No
Null samples used in CRC calculations : Yes
Used interface : Native Win32 interface for Win NT & 2000
Gap handling : Appended to previous track
Used output format : User Defined Encoder
Selected bitrate : 1024 kBit/s
Quality : High
Add ID3 tag : No
Command line compressor : C:\Program Files (x86)\Kodeki za Glasbo\FLAC\flac.exe
Additional command line options : -8 -V -T "ARTIST=%artist%" -T "TITLE=%title%" -T "ALBUM=%albumtitle%" -T "DATE=%year%" -T "TRACKNUMBER=%tracknr%" -T "TOTALTRACKS=%numtracks%" -T "GENRE=%genre%" -T "ALBUMARTIST=%albumartist%" -T "ALBUM ARTIST=%albumartist%" -T "COMMENT=EAC Secure Mode, Test & Copy, AccurateRip, FLAC -8" %source%
TOC of the extracted CD
Track | Start | Length | Start sector | End sector
---------------------------------------------------------
1 | 0:00.00 | 2:15.33 | 0 | 10157
2 | 2:15.33 | 2:23.47 | 10158 | 20929
3 | 4:39.05 | 2:38.00 | 20930 | 32779
4 | 7:17.05 | 2:41.40 | 32780 | 44894
5 | 9:58.45 | 3:30.07 | 44895 | 60651
6 | 13:28.52 | 2:27.30 | 60652 | 71706
7 | 15:56.07 | 2:26.34 | 71707 | 82690
8 | 18:22.41 | 2:47.05 | 82691 | 95220
9 | 21:09.46 | 2:25.11 | 95221 | 106106
10 | 23:34.57 | 3:29.48 | 106107 | 121829
11 | 27:04.30 | 2:15.02 | 121830 | 131956
12 | 29:19.32 | 2:52.01 | 131957 | 144857
13 | 32:11.33 | 2:52.17 | 144858 | 157774
14 | 35:03.50 | 2:52.24 | 157775 | 170698
15 | 37:55.74 | 2:31.72 | 170699 | 182095
16 | 40:27.71 | 2:20.19 | 182096 | 192614
17 | 42:48.15 | 3:51.71 | 192615 | 210010
18 | 46:40.11 | 2:55.33 | 210011 | 223168
19 | 49:35.44 | 2:33.02 | 223169 | 234645
20 | 52:08.46 | 3:48.20 | 234646 | 251765
21 | 55:56.66 | 2:32.10 | 251766 | 263175
22 | 58:29.01 | 2:11.33 | 263176 | 273033
23 | 60:40.34 | 2:36.08 | 273034 | 284741
24 | 63:16.42 | 2:38.52 | 284742 | 296643
25 | 65:55.19 | 2:42.66 | 296644 | 308859
Track 1
Filename M:\3. my rip in preparation\3\VA - Move on Up, The Very Best of Northern Soul (2015) [FLAC] {3CD, Universal 5358725}\CD3\01 - The M.V.P.'S - Turnin' my Heartbeat Up.wav
Pre-gap length 0:00:02.00
Peak level 99.8 %
Extraction speed 1.7 X
Track quality 99.9 %
Test CRC 93E663A2
Copy CRC 93E663A2
Track not present in AccurateRip database
Copy OK
Track 2
Filename M:\3. my rip in preparation\3\VA - Move on Up, The Very Best of Northern Soul (2015) [FLAC] {3CD, Universal 5358725}\CD3\02 - R. Dean Taylor - There's a Ghost in my House.wav
Peak level 92.0 %
Extraction speed 2.4 X
Track quality 100.0 %
Test CRC DBC64866
Copy CRC DBC64866
Track not present in AccurateRip database
Copy OK
Track 3
Filename M:\3. my rip in preparation\3\VA - Move on Up, The Very Best of Northern Soul (2015) [FLAC] {3CD, Universal 5358725}\CD3\03 - Shirley Ellis - Soul Time.wav
Peak level 78.5 %
Extraction speed 2.0 X
Track quality 99.9 %
Test CRC 04F6288D
Copy CRC 04F6288D
Track not present in AccurateRip database
Copy OK
Track 4
Filename M:\3. my rip in preparation\3\VA - Move on Up, The Very Best of Northern Soul (2015) [FLAC] {3CD, Universal 5358725}\CD3\04 - The Contours - Just a Little Misunderstanding.wav
Peak level 96.4 %
Extraction speed 2.8 X
Track quality 100.0 %
Test CRC 25249B5A
Copy CRC 25249B5A
Track not present in AccurateRip database
Copy OK
Track 5
Filename M:\3. my rip in preparation\3\VA - Move on Up, The Very Best of Northern Soul (2015) [FLAC] {3CD, Universal 5358725}\CD3\05 - Al Wilson - The Snake.wav
Peak level 99.8 %
Extraction speed 3.0 X
Track quality 100.0 %
Test CRC EC0117E9
Copy CRC EC0117E9
Track not present in AccurateRip database
Copy OK
Track 6
Filename M:\3. my rip in preparation\3\VA - Move on Up, The Very Best of Northern Soul (2015) [FLAC] {3CD, Universal 5358725}\CD3\06 - Tammi Terrell - Ain't no Mountain High Enough.wav
Peak level 98.6 %
Extraction speed 2.3 X
Track quality 99.9 %
Test CRC 38D1EE8E
Copy CRC 38D1EE8E
Track not present in AccurateRip database
Copy OK
Track 7
Filename M:\3. my rip in preparation\3\VA - Move on Up, The Very Best of Northern Soul (2015) [FLAC] {3CD, Universal 5358725}\CD3\07 - Four Tops - I'll Turn to Stone.wav
Peak level 98.4 %
Extraction speed 3.1 X
Track quality 100.0 %
Test CRC F08CD9F6
Copy CRC F08CD9F6
Track not present in AccurateRip database
Copy OK
Track 8
Filename M:\3. my rip in preparation\3\VA - Move on Up, The Very Best of Northern Soul (2015) [FLAC] {3CD, Universal 5358725}\CD3\08 - Luther Ingram - If It's All the Same to You Babe.wav
Peak level 89.0 %
Extraction speed 3.2 X
Track quality 100.0 %
Test CRC B9545AD2
Copy CRC B9545AD2
Track not present in AccurateRip database
Copy OK
Track 9
Filename M:\3. my rip in preparation\3\VA - Move on Up, The Very Best of Northern Soul (2015) [FLAC] {3CD, Universal 5358725}\CD3\09 - Billy Butler - Right Track.wav
Peak level 99.8 %
Extraction speed 3.3 X
Track quality 100.0 %
Test CRC 61EC6E49
Copy CRC 61EC6E49
Track not present in AccurateRip database
Copy OK
Track 10
Filename M:\3. my rip in preparation\3\VA - Move on Up, The Very Best of Northern Soul (2015) [FLAC] {3CD, Universal 5358725}\CD3\10 - Gene Chandler - There Was I Time.wav
Peak level 99.8 %
Extraction speed 3.6 X
Track quality 100.0 %
Test CRC 3D5A5D34
Copy CRC 3D5A5D34
Track not present in AccurateRip database
Copy OK
Track 11
Filename M:\3. my rip in preparation\3\VA - Move on Up, The Very Best of Northern Soul (2015) [FLAC] {3CD, Universal 5358725}\CD3\11 - Gloria Lynne - You Don't Have to Be a Tower of Strength.wav
Peak level 99.0 %
Extraction speed 3.4 X
Track quality 100.0 %
Test CRC 6FEC8914
Copy CRC 6FEC8914
Track not present in AccurateRip database
Copy OK
Track 12
Filename M:\3. my rip in preparation\3\VA - Move on Up, The Very Best of Northern Soul (2015) [FLAC] {3CD, Universal 5358725}\CD3\12 - Little Anthony & The Imperials - Better Use Your Head.wav
Peak level 99.8 %
Extraction speed 3.7 X
Track quality 100.0 %
Test CRC 83E0C855
Copy CRC 83E0C855
Track not present in AccurateRip database
Copy OK
Track 13
Filename M:\3. my rip in preparation\3\VA - Move on Up, The Very Best of Northern Soul (2015) [FLAC] {3CD, Universal 5358725}\CD3\13 - Stevie Wonder - Uptight (Everything's Alright).wav
Peak level 99.8 %
Extraction speed 3.8 X
Track quality 100.0 %
Test CRC B66A083A
Copy CRC B66A083A
Track not present in AccurateRip database
Copy OK
Track 14
Filename M:\3. my rip in preparation\3\VA - Move on Up, The Very Best of Northern Soul (2015) [FLAC] {3CD, Universal 5358725}\CD3\14 - The Elgins - Heaven Must Have Sent You.wav
Peak level 86.2 %
Extraction speed 3.1 X
Track quality 99.9 %
Test CRC B963ADF9
Copy CRC B963ADF9
Track not present in AccurateRip database
Copy OK
Track 15
Filename M:\3. my rip in preparation\3\VA - Move on Up, The Very Best of Northern Soul (2015) [FLAC] {3CD, Universal 5358725}\CD3\15 - Bobby Womack - What Is This.wav
Pre-gap length 0:00:00.56
Peak level 99.8 %
Extraction speed 3.9 X
Track quality 100.0 %
Test CRC FA82E621
Copy CRC FA82E621
Track not present in AccurateRip database
Copy OK
Track 16
Filename M:\3. my rip in preparation\3\VA - Move on Up, The Very Best of Northern Soul (2015) [FLAC] {3CD, Universal 5358725}\CD3\16 - Just Brothers - Sliced Tomatoes.wav
Peak level 99.8 %
Extraction speed 3.9 X
Track quality 100.0 %
Test CRC 96EB867E
Copy CRC 96EB867E
Track not present in AccurateRip database
Copy OK
Track 17
Filename M:\3. my rip in preparation\3\VA - Move on Up, The Very Best of Northern Soul (2015) [FLAC] {3CD, Universal 5358725}\CD3\17 - Young Holt Unlimited - Ain't There Something Money Can't Buy.wav
Peak level 99.8 %
Extraction speed 4.3 X
Track quality 100.0 %
Test CRC 0797D6CB
Copy CRC 0797D6CB
Track not present in AccurateRip database
Copy OK
Track 18
Filename M:\3. my rip in preparation\3\VA - Move on Up, The Very Best of Northern Soul (2015) [FLAC] {3CD, Universal 5358725}\CD3\18 - J.J. Barnes - Every Time I See You, I Go Wild.wav
Pre-gap length 0:00:00.26
Peak level 88.5 %
Extraction speed 4.3 X
Track quality 100.0 %
Test CRC F9F9C5D6
Copy CRC F9F9C5D6
Track not present in AccurateRip database
Copy OK
Track 19
Filename M:\3. my rip in preparation\3\VA - Move on Up, The Very Best of Northern Soul (2015) [FLAC] {3CD, Universal 5358725}\CD3\19 - Tammi Terrell - Two Can Have a Party.wav
Peak level 70.7 %
Extraction speed 3.1 X
Track quality 99.9 %
Test CRC 58C72BE7
Copy CRC 58C72BE7
Track not present in AccurateRip database
Copy OK
Track 20
Filename M:\3. my rip in preparation\3\VA - Move on Up, The Very Best of Northern Soul (2015) [FLAC] {3CD, Universal 5358725}\CD3\20 - Ramsey Lewis Trio - Wade in the Water.wav
Peak level 90.1 %
Extraction speed 4.6 X
Track quality 100.0 %
Test CRC 44FDF8FD
Copy CRC 44FDF8FD
Track not present in AccurateRip database
Copy OK
Track 21
Filename M:\3. my rip in preparation\3\VA - Move on Up, The Very Best of Northern Soul (2015) [FLAC] {3CD, Universal 5358725}\CD3\21 - The Capitols - Cool Jerk.wav
Peak level 99.2 %
Extraction speed 4.4 X
Track quality 100.0 %
Test CRC CFFF314C
Copy CRC CFFF314C
Track not present in AccurateRip database
Copy OK
Track 22
Filename M:\3. my rip in preparation\3\VA - Move on Up, The Very Best of Northern Soul (2015) [FLAC] {3CD, Universal 5358725}\CD3\22 - Jason Knight - Our Love Is Getting Stronger.wav
Peak level 96.7 %
Extraction speed 3.1 X
Track quality 99.9 %
Test CRC 63163954
Copy CRC 63163954
Track not present in AccurateRip database
Copy OK
Track 23
Filename M:\3. my rip in preparation\3\VA - Move on Up, The Very Best of Northern Soul (2015) [FLAC] {3CD, Universal 5358725}\CD3\23 - The Temptations - Get Ready.wav
Peak level 99.8 %
Extraction speed 4.5 X
Track quality 100.0 %
Test CRC 0CED0F88
Copy CRC 0CED0F88
Track not present in AccurateRip database
Copy OK
Track 24
Filename M:\3. my rip in preparation\3\VA - Move on Up, The Very Best of Northern Soul (2015) [FLAC] {3CD, Universal 5358725}\CD3\24 - Jimmy Radcliffe - Long After Tonight Is All Over.wav
Pre-gap length 0:00:00.14
Peak level 99.8 %
Extraction speed 3.3 X
Track quality 99.9 %
Test CRC 0E1F643F
Copy CRC 0E1F643F
Track not present in AccurateRip database
Copy OK
Track 25
Filename M:\3. my rip in preparation\3\VA - Move on Up, The Very Best of Northern Soul (2015) [FLAC] {3CD, Universal 5358725}\CD3\25 - Dean Parrish - I'm on my Way.wav
Peak level 89.1 %
Extraction speed 4.7 X
Track quality 100.0 %
Test CRC 0F260A63
Copy CRC 0F260A63
Track not present in AccurateRip database
Copy OK
None of the tracks are present in the AccurateRip database
No errors occurred
End of status report
---- CUETools DB Plugin V2.1.4
[CTDB TOCID: EJjD6qoHneO7DhEqCKDo4ddPmVE-] found
Submit result: EJjD6qoHneO7DhEqCKDo4ddPmVE- has been confirmed
Track | CTDB Status
1 | (3/3) Accurately ripped
2 | (3/3) Accurately ripped
3 | (3/3) Accurately ripped
4 | (3/3) Accurately ripped
5 | (3/3) Accurately ripped
6 | (3/3) Accurately ripped
7 | (3/3) Accurately ripped
8 | (3/3) Accurately ripped
9 | (3/3) Accurately ripped
10 | (3/3) Accurately ripped
11 | (3/3) Accurately ripped
12 | (3/3) Accurately ripped
13 | (3/3) Accurately ripped
14 | (3/3) Accurately ripped
15 | (3/3) Accurately ripped
16 | (3/3) Accurately ripped
17 | (3/3) Accurately ripped
18 | (3/3) Accurately ripped
19 | (3/3) Accurately ripped
20 | (3/3) Accurately ripped
21 | (3/3) Accurately ripped
22 | (3/3) Accurately ripped
23 | (3/3) Accurately ripped
24 | (3/3) Accurately ripped
25 | (3/3) Accurately ripped
==== Log checksum 81C44AC67D29F0AF0B2CAC26760452CB7469155301E7BFF57603C91CCB02207F ====
 
Содержание индексной карты (.CUE)
REM GENRE Soul
REM DATE 2015
REM DISCID 5D101619
REM COMMENT "ExactAudioCopy v1.0b4"
CATALOG 0600753587287
PERFORMER "Various Artists"
TITLE "Move on Up: The Very Best of Northern Soul (Disc 3)"
FILE "01 - The M.V.P.'S - Turnin' my Heartbeat Up.wav" WAVE
TRACK 01 AUDIO
TITLE "Turnin' my Heartbeat Up"
PERFORMER "The M.V.P.'S"
ISRC USBR10000136
INDEX 01 00:00:00
FILE "02 - R. Dean Taylor - There's a Ghost in my House.wav" WAVE
TRACK 02 AUDIO
TITLE "There's a Ghost in my House"
PERFORMER "R. Dean Taylor"
ISRC USMO16700533
INDEX 01 00:00:00
FILE "03 - Shirley Ellis - Soul Time.wav" WAVE
TRACK 03 AUDIO
TITLE "Soul Time"
PERFORMER "Shirley Ellis"
ISRC USSM16601451
INDEX 01 00:00:00
FILE "04 - The Contours - Just a Little Misunderstanding.wav" WAVE
TRACK 04 AUDIO
TITLE "Just a Little Misunderstanding"
PERFORMER "The Contours"
ISRC USMO16682601
INDEX 01 00:00:00
FILE "05 - Al Wilson - The Snake.wav" WAVE
TRACK 05 AUDIO
TITLE "The Snake"
PERFORMER "Al Wilson"
ISRC USDEI6802676
INDEX 01 00:00:00
FILE "06 - Tammi Terrell - Ain't no Mountain High Enough.wav" WAVE
TRACK 06 AUDIO
TITLE "Ain't no Mountain High Enough"
PERFORMER "Tammi Terrell"
ISRC USMO16700486
INDEX 01 00:00:00
FILE "07 - Four Tops - I'll Turn to Stone.wav" WAVE
TRACK 07 AUDIO
TITLE "I'll Turn to Stone"
PERFORMER "Four Tops"
ISRC USMO10300861
INDEX 01 00:00:00
FILE "08 - Luther Ingram - If It's All the Same to You Babe.wav" WAVE
TRACK 08 AUDIO
TITLE "If It's All the Same to You Babe"
PERFORMER "Luther Ingram"
ISRC GBC496710002
INDEX 01 00:00:00
FILE "09 - Billy Butler - Right Track.wav" WAVE
TRACK 09 AUDIO
TITLE "Right Track"
PERFORMER "Billy Butler"
ISRC USSM16501249
INDEX 01 00:00:00
FILE "10 - Gene Chandler - There Was I Time.wav" WAVE
TRACK 10 AUDIO
TITLE "There Was I Time"
PERFORMER "Gene Chandler"
ISRC GBBLG9800380
INDEX 01 00:00:00
FILE "11 - Gloria Lynne - You Don't Have to Be a Tower of Strength.wav" WAVE
TRACK 11 AUDIO
TITLE "You Don't Have to Be a Tower of Strength"
PERFORMER "Gloria Lynne"
ISRC USGZ20600800
INDEX 01 00:00:00
FILE "12 - Little Anthony & The Imperials - Better Use Your Head.wav" WAVE
TRACK 12 AUDIO
TITLE "Better Use Your Head"
PERFORMER "Little Anthony & The Imperials"
ISRC GBAYE6600074
INDEX 01 00:00:00
FILE "13 - Stevie Wonder - Uptight (Everything's Alright).wav" WAVE
TRACK 13 AUDIO
TITLE "Uptight (Everything's Alright)"
PERFORMER "Stevie Wonder"
ISRC USMO16500487
INDEX 01 00:00:00
FILE "14 - The Elgins - Heaven Must Have Sent You.wav" WAVE
TRACK 14 AUDIO
TITLE "Heaven Must Have Sent You"
PERFORMER "The Elgins"
ISRC USUM70700283
INDEX 01 00:00:00
TRACK 15 AUDIO
TITLE "What Is This"
PERFORMER "Bobby Womack"
ISRC USEM38600120
INDEX 00 02:51:57
FILE "15 - Bobby Womack - What Is This.wav" WAVE
INDEX 01 00:00:00
FILE "16 - Just Brothers - Sliced Tomatoes.wav" WAVE
TR
Приватный:
Нет (DHT включён)
Размер:
1.22 Гб (1,310,097,350 байт) » файлов: 100
Участники:
0 раздают, 0 качают (0 участников всего)
Внешние участники:
5 раздают, 2 качают (7 участников всего) [ Обновить ]
For power users only: no seeders - write to support@pro-jazz.com. Для power user: нет сидеров - пишите на support@pro-jazz.com.
07:40
74
Нет комментариев. Ваш будет первым!