Поиск

(Soul, R&B) [CD] Patti LaBelle - I'm In Love Again (1983) - 2015 (Expanded Edition), FLAC (tracks+.cue), lossless

(Soul, R&B) [CD] Patti LaBelle - I'm In Love Again (1983) - 2015 (Expanded Edition), FLAC (tracks+.cue), lossless
Треклист:
Patti LaBelle - I'm In Love Again (1983) Жанр: Soul, R&B
Носитель: CD
Год издания: 2015
Издатель (лейбл): Funkytowngrooves
Номер по каталогу: FTG-420
Аудиокодек: FLAC (*.flac)
Тип рипа: tracks+.cue
Битрейт аудио: lossless
Продолжительность: 53:48
Rip by JET 1
Наличие сканов в содержимом раздачи: да
Треклист:
01. I'm In Love Again (5:40)
02. Lover Man (Oh, Where Can You Be?) (4:08)
03. Love, Need And Want You (5:01)
04. If Only You Knew (4:48)
05. Body Language (4:47)
06. I'll Never, Never Give Up (5:22)
07. Love Bankrupt (4:35)
08. When Am I Gonna Find True Love (4:25)
09. Love, Need And Want You (7” Version) (3:45)
10. I'm In Love Again (7” Version) (3:47)
11. If Only You Knew (7” Version) (3:48)
12. I'll Never, Never Give Up (7” Version) (3:41)
 
 
Лог создания рипа
Exact Audio Copy V1.0 beta 3 from 29. August 2011
EAC extraction logfile from 16. October 2015, 16:17
Patti LaBelle / I'm In Love Again (Expanded Edition)
Used drive : GENERIC CDRCB05 Adapter: 4 ID: 0
Read mode : Secure
Utilize accurate stream : Yes
Defeat audio cache : Yes
Make use of C2 pointers : No
Read offset correction : 102
Overread into Lead-In and Lead-Out : No
Fill up missing offset samples with silence : Yes
Delete leading and trailing silent blocks : No
Null samples used in CRC calculations : Yes
Used interface : Native Win32 interface for Win NT & 2000
Gap handling : Appended to previous track
Used output format : User Defined Encoder
Selected bitrate : 1024 kBit/s
Quality : High
Add ID3 tag : No
Command line compressor : C:\Program Files\FLAC\flac.exe
Additional command line options : -8 -V -T "ARTIST=%artist%" -T "TITLE=%title%" -T "ALBUM=%albumtitle%" -T "DATE=%year%" -T "TRACKNUMBER=%tracknr%" -T "GENRE=%genre%" -T "PERFORMER=%albuminterpret%" -T "COMPOSER=%composer%" %haslyrics%--tag-from-file=LYRICS="%lyricsfile%"%haslyrics% -T "ALBUMARTIST=%albumartist%" -T "DISCNUMBER=%cdnumber%" -T "TOTALDISCS=%totalcds%" -T "TOTALTRACKS=%numtracks%" -T "COMMENT=%comment%" %source% -o %dest%
TOC of the extracted CD
Track | Start | Length | Start sector | End sector
---------------------------------------------------------
1 | 0:00.00 | 5:40.20 | 0 | 25519
2 | 5:40.20 | 4:08.09 | 25520 | 44128
3 | 9:48.29 | 5:00.57 | 44129 | 66685
4 | 14:49.11 | 4:47.55 | 66686 | 88265
5 | 19:36.66 | 4:47.20 | 88266 | 109810
6 | 24:24.11 | 5:22.32 | 109811 | 133992
7 | 29:46.43 | 4:35.00 | 133993 | 154617
8 | 34:21.43 | 4:24.66 | 154618 | 174483
9 | 38:46.34 | 3:45.14 | 174484 | 191372
10 | 42:31.48 | 3:46.69 | 191373 | 208391
11 | 46:18.42 | 3:47.67 | 208392 | 225483
12 | 50:06.34 | 3:41.18 | 225484 | 242076
Track 1
Filename G:\POSTS\Patti LaBelle - I'm In Love Again (1983) [2015 FTG Reissue]\01 - I’m In Love Again.wav
Pre-gap length 0:00:02.00
Peak level 99.1 %
Extraction speed 2.3 X
Track quality 99.9 %
Test CRC 591E0141
Copy CRC 591E0141
Track not present in AccurateRip database
Copy OK
Track 2
Filename G:\POSTS\Patti LaBelle - I'm In Love Again (1983) [2015 FTG Reissue]\02 - Lover Man (Oh, Where Can You Be).wav
Pre-gap length 0:00:02.00
Peak level 97.6 %
Extraction speed 2.7 X
Track quality 100.0 %
Test CRC 2F177468
Copy CRC 2F177468
Track not present in AccurateRip database
Copy OK
Track 3
Filename G:\POSTS\Patti LaBelle - I'm In Love Again (1983) [2015 FTG Reissue]\03 - Love, Need And Want You.wav
Pre-gap length 0:00:02.00
Peak level 98.9 %
Extraction speed 2.8 X
Track quality 99.9 %
Test CRC 71004C4A
Copy CRC 71004C4A
Track not present in AccurateRip database
Copy OK
Track 4
Filename G:\POSTS\Patti LaBelle - I'm In Love Again (1983) [2015 FTG Reissue]\04 - If Only You Knew.wav
Pre-gap length 0:00:02.00
Peak level 97.8 %
Extraction speed 3.3 X
Track quality 100.0 %
Test CRC 21E19893
Copy CRC 21E19893
Track not present in AccurateRip database
Copy OK
Track 5
Filename G:\POSTS\Patti LaBelle - I'm In Love Again (1983) [2015 FTG Reissue]\05 - Body Language.wav
Pre-gap length 0:00:02.00
Peak level 98.6 %
Extraction speed 3.5 X
Track quality 100.0 %
Test CRC 583EDA69
Copy CRC 583EDA69
Track not present in AccurateRip database
Copy OK
Track 6
Filename G:\POSTS\Patti LaBelle - I'm In Love Again (1983) [2015 FTG Reissue]\06 - I’ll Never, Never Give Up.wav
Pre-gap length 0:00:02.00
Peak level 99.9 %
Extraction speed 3.8 X
Track quality 100.0 %
Test CRC 23F687F5
Copy CRC 23F687F5
Track not present in AccurateRip database
Copy OK
Track 7
Filename G:\POSTS\Patti LaBelle - I'm In Love Again (1983) [2015 FTG Reissue]\07 - Love Bankrupt.wav
Pre-gap length 0:00:02.00
Peak level 100.0 %
Extraction speed 3.9 X
Track quality 100.0 %
Test CRC 21B28603
Copy CRC 21B28603
Track not present in AccurateRip database
Copy OK
Track 8
Filename G:\POSTS\Patti LaBelle - I'm In Love Again (1983) [2015 FTG Reissue]\08 - When Am I Gonna Find True Love.wav
Pre-gap length 0:00:02.00
Peak level 98.5 %
Extraction speed 4.0 X
Track quality 100.0 %
Test CRC 897A8435
Copy CRC 897A8435
Track not present in AccurateRip database
Copy OK
Track 9
Filename G:\POSTS\Patti LaBelle - I'm In Love Again (1983) [2015 FTG Reissue]\09 - Love, Need And Want You (7” Version).wav
Pre-gap length 0:00:02.00
Peak level 99.0 %
Extraction speed 4.0 X
Track quality 100.0 %
Test CRC 9AC84201
Copy CRC 9AC84201
Track not present in AccurateRip database
Copy OK
Track 10
Filename G:\POSTS\Patti LaBelle - I'm In Love Again (1983) [2015 FTG Reissue]\10 - I’m In Love Again (7” Version).wav
Pre-gap length 0:00:02.00
Peak level 98.0 %
Extraction speed 4.3 X
Track quality 100.0 %
Test CRC 7D749C05
Copy CRC 7D749C05
Track not present in AccurateRip database
Copy OK
Track 11
Filename G:\POSTS\Patti LaBelle - I'm In Love Again (1983) [2015 FTG Reissue]\11 - If Only You Knew (7” Version).wav
Pre-gap length 0:00:02.00
Peak level 97.9 %
Extraction speed 4.4 X
Track quality 100.0 %
Test CRC 23C71584
Copy CRC 23C71584
Track not present in AccurateRip database
Copy OK
Track 12
Filename G:\POSTS\Patti LaBelle - I'm In Love Again (1983) [2015 FTG Reissue]\12 - I’ll Never, Never Give Up (7” Version).wav
Pre-gap length 0:00:02.00
Peak level 99.3 %
Extraction speed 4.6 X
Track quality 100.0 %
Test CRC DBDF10ED
Copy CRC DBDF10ED
Track not present in AccurateRip database
Copy OK
None of the tracks are present in the AccurateRip database
No errors occurred
End of status report
==== Log checksum 3390FAAB72960E7376BD3B33C8896300455B5B9E00E6B9726BA2098CD54E0485 ====
 
Содержание индексной карты (.CUE)
REM GENRE Soul
REM DATE 1983
REM DISCID AA0C9B0C
REM COMMENT "ExactAudioCopy v1.0b3"
PERFORMER "Patti LaBelle"
TITLE "I'm In Love Again (Expanded Edition)"
FILE "01 - I'm In Love Again.wav" WAVE
TRACK 01 AUDIO
TITLE "I'm In Love Again"
PERFORMER "Patti LaBelle"
INDEX 01 00:00:00
TRACK 02 AUDIO
TITLE "Lover Man (Oh, Where Can You Be?) "
PERFORMER "Patti LaBelle"
INDEX 00 05:38:20
FILE "02 - Lover Man (Oh, Where Can You Be).wav" WAVE
INDEX 01 00:00:00
TRACK 03 AUDIO
TITLE "Love, Need And Want You "
PERFORMER "Patti LaBelle"
INDEX 00 04:06:09
FILE "03 - Love, Need And Want You.wav" WAVE
INDEX 01 00:00:00
TRACK 04 AUDIO
TITLE "If Only You Knew"
PERFORMER "Patti LaBelle"
INDEX 00 04:58:57
FILE "04 - If Only You Knew.wav" WAVE
INDEX 01 00:00:00
TRACK 05 AUDIO
TITLE "Body Language"
PERFORMER "Patti LaBelle"
INDEX 00 04:45:55
FILE "05 - Body Language.wav" WAVE
INDEX 01 00:00:00
TRACK 06 AUDIO
TITLE "I'll Never, Never Give Up"
PERFORMER "Patti LaBelle"
INDEX 00 04:45:20
FILE "06 - I'll Never, Never Give Up.wav" WAVE
INDEX 01 00:00:00
TRACK 07 AUDIO
TITLE "Love Bankrupt"
PERFORMER "Patti LaBelle"
INDEX 00 05:20:32
FILE "07 - Love Bankrupt.wav" WAVE
INDEX 01 00:00:00
TRACK 08 AUDIO
TITLE "When Am I Gonna Find True Love"
PERFORMER "Patti LaBelle"
INDEX 00 04:33:00
FILE "08 - When Am I Gonna Find True Love.wav" WAVE
INDEX 01 00:00:00
TRACK 09 AUDIO
TITLE "Love, Need And Want You (7” Version) "
PERFORMER "Patti LaBelle"
INDEX 00 04:22:66
FILE "09 - Love, Need And Want You (7” Version).wav" WAVE
INDEX 01 00:00:00
TRACK 10 AUDIO
TITLE "I'm In Love Again (7” Version) "
PERFORMER "Patti LaBelle"
INDEX 00 03:43:14
FILE "10 - I'm In Love Again (7” Version).wav" WAVE
INDEX 01 00:00:00
TRACK 11 AUDIO
TITLE "If Only You Knew (7” Version) "
PERFORMER "Patti LaBelle"
INDEX 00 03:44:69
FILE "11 - If Only You Knew (7” Version).wav" WAVE
INDEX 01 00:00:00
TRACK 12 AUDIO
TITLE "I'll Never, Never Give Up (7” Version) "
PERFORMER "Patti LaBelle"
INDEX 00 03:45:67
FILE "12 - I'll Never, Never Give Up (7” Version).wav" WAVE
INDEX 01 00:00:00
Приватный:
Нет (DHT включён)
Размер:
471.63 Мб (494,541,400 байт) » файлов: 23
Участники:
0 раздают, 1 качают (1 участников всего)
Внешние участники:
3 раздают, 1 качают (4 участников всего) [ Обновить ]
Скорость:
207.81 Кб/c 0/c
Есть вопросы - пишите личное сообщение пользователю M0p94ok.
08:21
57
Нет комментариев. Ваш будет первым!