Поиск

(Soul, R&B) [CD] Jeff Floyd - Changing Time - 1992, FLAC (tracks+.cue), lossless

(Soul, R&B) [CD] Jeff Floyd - Changing Time - 1992, FLAC (tracks+.cue), lossless
Треклист:
Jeff Floyd - Changing Time Жанр: Soul, R&B
Носитель: CD
Год издания: 1992
Издатель (лейбл): Murphy Floyd Records
Номер по каталогу: JCM 2217
Аудиокодек: FLAC (*.flac)
Тип рипа: tracks+.cue
Битрейт аудио: lossless
Продолжительность: 34:26
Rip by JET 1
Наличие сканов в содержимом раздачи: да
Треклист:
01. Changing Time (4:59)
02. 9 To 5 (4:30)
03. Breaking Heart (4:19)
04. Miss You (5:06)
05. Throw Her Love To Me (3:27)
06. Walking In The Rain (4:34)
07. Why You Ain't Funky (4:23)
08. Little Susie (3:08)
 
 
Лог создания рипа
Exact Audio Copy V1.0 beta 3 from 29. August 2011
EAC extraction logfile from 6. February 2016, 15:49
Jeff Floyd / Changing Times
Used drive : GENERIC CDRCB05 Adapter: 4 ID: 0
Read mode : Secure
Utilize accurate stream : Yes
Defeat audio cache : Yes
Make use of C2 pointers : No
Read offset correction : 102
Overread into Lead-In and Lead-Out : No
Fill up missing offset samples with silence : Yes
Delete leading and trailing silent blocks : No
Null samples used in CRC calculations : Yes
Used interface : Native Win32 interface for Win NT & 2000
Gap handling : Appended to previous track
Used output format : User Defined Encoder
Selected bitrate : 1024 kBit/s
Quality : High
Add ID3 tag : No
Command line compressor : C:\Program Files\FLAC\flac.exe
Additional command line options : -8 -V -T "ARTIST=%artist%" -T "TITLE=%title%" -T "ALBUM=%albumtitle%" -T "DATE=%year%" -T "TRACKNUMBER=%tracknr%" -T "GENRE=%genre%" -T "PERFORMER=%albuminterpret%" -T "COMPOSER=%composer%" %haslyrics%--tag-from-file=LYRICS="%lyricsfile%"%haslyrics% -T "ALBUMARTIST=%albumartist%" -T "DISCNUMBER=%cdnumber%" -T "TOTALDISCS=%totalcds%" -T "TOTALTRACKS=%numtracks%" -T "COMMENT=%comment%" %source% -o %dest%
TOC of the extracted CD
Track | Start | Length | Start sector | End sector
---------------------------------------------------------
1 | 0:00.00 | 4:59.05 | 0 | 22429
2 | 4:59.05 | 4:29.65 | 22430 | 42669
3 | 9:28.70 | 4:18.47 | 42670 | 62066
4 | 13:47.42 | 5:06.15 | 62067 | 85031
5 | 18:53.57 | 3:27.05 | 85032 | 100561
6 | 22:20.62 | 4:34.25 | 100562 | 121136
7 | 26:55.12 | 4:22.53 | 121137 | 140839
8 | 31:17.65 | 3:07.72 | 140840 | 154936
Track 1
Filename G:\POSTS\Jeff Floyd - Changing Time (1992)\01 - Changing Times.wav
Pre-gap length 0:00:02.00
Peak level 97.7 %
Extraction speed 1.4 X
Track quality 100.0 %
Test CRC 521E2B63
Copy CRC 521E2B63
Track not present in AccurateRip database
Copy OK
Track 2
Filename G:\POSTS\Jeff Floyd - Changing Time (1992)\02 - 9 To 5.wav
Pre-gap length 0:00:01.45
Peak level 97.7 %
Extraction speed 1.5 X
Track quality 100.0 %
Test CRC 6AAD672A
Copy CRC 6AAD672A
Track not present in AccurateRip database
Copy OK
Track 3
Filename G:\POSTS\Jeff Floyd - Changing Time (1992)\03 - Breakin' Heart.wav
Pre-gap length 0:00:02.05
Peak level 97.7 %
Extraction speed 1.5 X
Track quality 99.9 %
Test CRC C10CE668
Copy CRC C10CE668
Track not present in AccurateRip database
Copy OK
Track 4
Filename G:\POSTS\Jeff Floyd - Changing Time (1992)\04 - Miss You.wav
Pre-gap length 0:00:01.62
Peak level 97.7 %
Extraction speed 1.9 X
Track quality 100.0 %
Test CRC 0D9E8B6B
Copy CRC 0D9E8B6B
Track not present in AccurateRip database
Copy OK
Track 5
Filename G:\POSTS\Jeff Floyd - Changing Time (1992)\05 - Throw Her Love To Me.wav
Pre-gap length 0:00:01.62
Peak level 97.7 %
Extraction speed 1.9 X
Track quality 100.0 %
Test CRC 3AB65A36
Copy CRC 3AB65A36
Track not present in AccurateRip database
Copy OK
Track 6
Filename G:\POSTS\Jeff Floyd - Changing Time (1992)\06 - Walking In The Rain.wav
Pre-gap length 0:00:01.62
Peak level 97.7 %
Extraction speed 2.0 X
Track quality 100.0 %
Test CRC 8EB2D042
Copy CRC 8EB2D042
Track not present in AccurateRip database
Copy OK
Track 7
Filename G:\POSTS\Jeff Floyd - Changing Time (1992)\07 - Why You in't Funky.wav
Pre-gap length 0:00:01.62
Peak level 97.7 %
Extraction speed 2.2 X
Track quality 100.0 %
Test CRC CCAFEFC7
Copy CRC CCAFEFC7
Track not present in AccurateRip database
Copy OK
Track 8
Filename G:\POSTS\Jeff Floyd - Changing Time (1992)\08 - Little Susie.wav
Pre-gap length 0:00:01.63
Peak level 97.7 %
Extraction speed 2.1 X
Track quality 100.0 %
Test CRC 3B87ABFA
Copy CRC 3B87ABFA
Track not present in AccurateRip database
Copy OK
None of the tracks are present in the AccurateRip database
No errors occurred
End of status report
==== Log checksum C60C5CBA00A8615B42BFF0B1129B052EB7B57DBF0DCAEF429757B3F2C12B5B6F ====
 
Содержание индексной карты (.CUE)
REM GENRE Soul
REM DATE 1992
REM DISCID 61081108
REM COMMENT "ExactAudioCopy v1.0b3"
PERFORMER "Jeff Floyd"
TITLE "Changing Time"
FILE "01. Changing Time.flac" WAVE
TRACK 01 AUDIO
TITLE "Changing Time"
PERFORMER "Jeff Floyd"
INDEX 01 00:00:00
TRACK 02 AUDIO
TITLE "9 To 5"
PERFORMER "Jeff Floyd"
INDEX 00 04:57:35
FILE "02. 9 To 5.flac" WAVE
INDEX 01 00:00:00
TRACK 03 AUDIO
TITLE "Breaking Heart"
PERFORMER "Jeff Floyd"
INDEX 00 04:27:60
FILE "03. Breaking Heart.flac" WAVE
INDEX 01 00:00:00
TRACK 04 AUDIO
TITLE "Miss You"
PERFORMER "Jeff Floyd"
INDEX 00 04:16:60
FILE "04. Miss You.flac" WAVE
INDEX 01 00:00:00
TRACK 05 AUDIO
TITLE "Throw Her Love To Me"
PERFORMER "Jeff Floyd"
INDEX 00 05:04:28
FILE "05. Throw Her Love To Me.flac" WAVE
INDEX 01 00:00:00
TRACK 06 AUDIO
TITLE "Walking In The Rain"
PERFORMER "Jeff Floyd"
INDEX 00 03:25:18
FILE "06. Walking In The Rain.flac" WAVE
INDEX 01 00:00:00
TRACK 07 AUDIO
TITLE "Why You Ain't Funky"
PERFORMER "Jeff Floyd"
INDEX 00 04:32:38
FILE "07. Why You Ain't Funky.flac" WAVE
INDEX 01 00:00:00
TRACK 08 AUDIO
TITLE "Little Susie"
PERFORMER "Jeff Floyd"
INDEX 00 04:20:65
FILE "08. Little Susie.flac" WAVE
INDEX 01 00:00:00
Приватный:
Нет (DHT включён)
Размер:
244.83 Мб (256,720,931 байт) » файлов: 16
Участники:
0 раздают, 0 качают (0 участников всего)
Внешние участники:
1 раздают, 0 качают (1 участников всего) [ Обновить ]
No seeders - write a personal message to user M0p94ok. Нет сидеров - пишите личное сообщение пользователю M0p94ok.
10:08
96
Нет комментариев. Ваш будет первым!