Поиск

(Soul, R&B) [CD] Freda Payne - Contact (1971) - 2013 {CDSOL-5530}, FLAC (tracks+.cue), lossless

(Soul, R&B) [CD] Freda Payne - Contact (1971) - 2013 {CDSOL-5530}, FLAC (tracks+.cue), lossless
Треклист:
Freda Payne - Contact (1971) Жанр: Soul, R&B
Носитель: CD
Страна-производитель диска: Japan
Год издания: 2013
Издатель (лейбл): Ultra-Vybe
Номер по каталогу: CDSOL-5530
Аудиокодек: FLAC (*.flac)
Тип рипа: tracks+.cue
Битрейт аудио: lossless
Продолжительность: 65:47
Rip by JET 1
Наличие сканов в содержимом раздачи: да
Треклист:
01. I'm Not Getting Any Better (6:16)
02. Suddenly It's Yesterday (4:59)
03. You Brought The Joy (2:57)
04. Bring The Boys Home (3:30)
05. You've Got To Love Somebody (Let It Be Me) (3:03)
06. Prelude (0:54)
07. The Road We Didn't Take (4:21)
08. Odds And Ends (3:46)
09. Cherish What Is Dear To You (While It's Near To You) (3:57)
10. I Shall Not Be Moved (2:46)
11. Mama's Gone (3:27)
Bonus tracks:
12. You Brought The Joy (2:58)
13. He's In My Life (3:49)
14. How Can I Live Without My Life (2:57)
15. Just A Woman (2:35)
16. Come Back (2:51)
17. You're The Only Bargain I've Got (3:42)
18. Deeper & Deeper (US Single) (3:17)
19. Band Of Gold (Alt. Version) (3:42)
 
 
Лог создания рипа
Exact Audio Copy V1.0 beta 3 from 29. August 2011
EAC extraction logfile from 27. July 2016, 23:01
Freda Payne / Contact
Used drive : GENERIC CDRCB05 Adapter: 4 ID: 0
Read mode : Secure
Utilize accurate stream : Yes
Defeat audio cache : Yes
Make use of C2 pointers : No
Read offset correction : 102
Overread into Lead-In and Lead-Out : No
Fill up missing offset samples with silence : Yes
Delete leading and trailing silent blocks : No
Null samples used in CRC calculations : Yes
Used interface : Native Win32 interface for Win NT & 2000
Gap handling : Appended to previous track
Used output format : User Defined Encoder
Selected bitrate : 1024 kBit/s
Quality : High
Add ID3 tag : No
Command line compressor : C:\Program Files\FLAC\flac.exe
Additional command line options : -8 -V -T "ARTIST=%artist%" -T "TITLE=%title%" -T "ALBUM=%albumtitle%" -T "DATE=%year%" -T "TRACKNUMBER=%tracknr%" -T "GENRE=%genre%" -T "PERFORMER=%albuminterpret%" -T "COMPOSER=%composer%" %haslyrics%--tag-from-file=LYRICS="%lyricsfile%"%haslyrics% -T "ALBUMARTIST=%albumartist%" -T "DISCNUMBER=%cdnumber%" -T "TOTALDISCS=%totalcds%" -T "TOTALTRACKS=%numtracks%" -T "COMMENT=%comment%" %source% -o %dest%
TOC of the extracted CD
Track | Start | Length | Start sector | End sector
---------------------------------------------------------
1 | 0:00.00 | 6:15.58 | 0 | 28182
2 | 6:15.58 | 4:59.12 | 28183 | 50619
3 | 11:14.70 | 2:56.64 | 50620 | 63883
4 | 14:11.59 | 3:30.29 | 63884 | 79662
5 | 17:42.13 | 3:02.69 | 79663 | 93381
6 | 20:45.07 | 0:54.23 | 93382 | 97454
7 | 21:39.30 | 4:20.70 | 97455 | 117024
8 | 26:00.25 | 3:46.05 | 117025 | 133979
9 | 29:46.30 | 3:57.25 | 133980 | 151779
10 | 33:43.55 | 2:45.48 | 151780 | 164202
11 | 36:29.28 | 3:26.68 | 164203 | 179720
12 | 39:56.21 | 2:58.09 | 179721 | 193079
13 | 42:54.30 | 3:49.16 | 193080 | 210270
14 | 46:43.46 | 2:57.26 | 210271 | 223571
15 | 49:40.72 | 2:34.41 | 223572 | 235162
16 | 52:15.38 | 2:51.07 | 235163 | 247994
17 | 55:06.45 | 3:42.19 | 247995 | 264663
18 | 58:48.64 | 3:16.63 | 264664 | 279426
19 | 62:05.52 | 3:41.58 | 279427 | 296059
Track 1
Filename G:\......POSTSSS\Freda Payne - Contact (1971) [2013 Japan]\01 - I'm Not Getting Any Better.wav
Pre-gap length 0:00:02.00
Peak level 98.3 %
Extraction speed 2.6 X
Track quality 100.0 %
Test CRC 8DDF973A
Copy CRC 8DDF973A
Track not present in AccurateRip database
Copy OK
Track 2
Filename G:\......POSTSSS\Freda Payne - Contact (1971) [2013 Japan]\02 - Suddenly It's Yesterday.wav
Peak level 98.3 %
Extraction speed 2.5 X
Track quality 99.9 %
Test CRC ACCC364E
Copy CRC ACCC364E
Track not present in AccurateRip database
Copy OK
Track 3
Filename G:\......POSTSSS\Freda Payne - Contact (1971) [2013 Japan]\03 - You Brought The Joy.wav
Peak level 98.3 %
Extraction speed 2.7 X
Track quality 100.0 %
Test CRC 121FC533
Copy CRC 121FC533
Track not present in AccurateRip database
Copy OK
Track 4
Filename G:\......POSTSSS\Freda Payne - Contact (1971) [2013 Japan]\04 - Bring The Boys Home.wav
Peak level 98.3 %
Extraction speed 3.1 X
Track quality 100.0 %
Test CRC 2D3B0BA8
Copy CRC 2D3B0BA8
Track not present in AccurateRip database
Copy OK
Track 5
Filename G:\......POSTSSS\Freda Payne - Contact (1971) [2013 Japan]\05 - You've Got To Love Somebody (Let It Be Me).wav
Peak level 98.3 %
Extraction speed 2.7 X
Track quality 99.9 %
Test CRC 255650E9
Copy CRC 255650E9
Track not present in AccurateRip database
Copy OK
Track 6
Filename G:\......POSTSSS\Freda Payne - Contact (1971) [2013 Japan]\06 - Prelude.wav
Peak level 98.3 %
Extraction speed 2.2 X
Track quality 100.0 %
Test CRC E17A7B54
Copy CRC E17A7B54
Track not present in AccurateRip database
Copy OK
Track 7
Filename G:\......POSTSSS\Freda Payne - Contact (1971) [2013 Japan]\07 - The Road We Didn't Take.wav
Peak level 98.3 %
Extraction speed 3.1 X
Track quality 99.9 %
Test CRC E56F5010
Copy CRC E56F5010
Track not present in AccurateRip database
Copy OK
Track 8
Filename G:\......POSTSSS\Freda Payne - Contact (1971) [2013 Japan]\08 - Odds And Ends.wav
Peak level 98.2 %
Extraction speed 3.1 X
Track quality 99.9 %
Test CRC E81F239D
Copy CRC E81F239D
Track not present in AccurateRip database
Copy OK
Track 9
Filename G:\......POSTSSS\Freda Payne - Contact (1971) [2013 Japan]\09 - Cherish What Is Dear To You (While It's Near To You).wav
Peak level 98.3 %
Extraction speed 3.6 X
Track quality 100.0 %
Test CRC D3D3AE58
Copy CRC D3D3AE58
Track not present in AccurateRip database
Copy OK
Track 10
Filename G:\......POSTSSS\Freda Payne - Contact (1971) [2013 Japan]\10 - I Shall Not Be Moved.wav
Peak level 98.3 %
Extraction speed 2.8 X
Track quality 99.9 %
Test CRC 5239E49B
Copy CRC 5239E49B
Track not present in AccurateRip database
Copy OK
Track 11
Filename G:\......POSTSSS\Freda Payne - Contact (1971) [2013 Japan]\11 - Mama's Gone.wav
Peak level 98.3 %
Extraction speed 3.6 X
Track quality 100.0 %
Test CRC 2C08A18B
Copy CRC 2C08A18B
Track not present in AccurateRip database
Copy OK
Track 12
Filename G:\......POSTSSS\Freda Payne - Contact (1971) [2013 Japan]\12 - You Brought The Joy.wav
Peak level 98.3 %
Extraction speed 3.6 X
Track quality 100.0 %
Test CRC FA0125FE
Copy CRC FA0125FE
Track not present in AccurateRip database
Copy OK
Track 13
Filename G:\......POSTSSS\Freda Payne - Contact (1971) [2013 Japan]\13 - He's In My Life.wav
Peak level 98.3 %
Extraction speed 3.8 X
Track quality 100.0 %
Test CRC 3965BF98
Copy CRC 3965BF98
Track not present in AccurateRip database
Copy OK
Track 14
Filename G:\......POSTSSS\Freda Payne - Contact (1971) [2013 Japan]\14 - How Can I Live Without My Life.wav
Peak level 98.3 %
Extraction speed 3.9 X
Track quality 100.0 %
Test CRC 4E29CF02
Copy CRC 4E29CF02
Track not present in AccurateRip database
Copy OK
Track 15
Filename G:\......POSTSSS\Freda Payne - Contact (1971) [2013 Japan]\15 - Just A Woman.wav
Peak level 98.3 %
Extraction speed 3.9 X
Track quality 100.0 %
Test CRC FF8C44AE
Copy CRC FF8C44AE
Track not present in AccurateRip database
Copy OK
Track 16
Filename G:\......POSTSSS\Freda Payne - Contact (1971) [2013 Japan]\16 - Come Back.wav
Peak level 98.3 %
Extraction speed 4.1 X
Track quality 100.0 %
Test CRC 6A1CEB2C
Copy CRC 6A1CEB2C
Track not present in AccurateRip database
Copy OK
Track 17
Filename G:\......POSTSSS\Freda Payne - Contact (1971) [2013 Japan]\17 - You're The Only Bargain I've Got.wav
Peak level 98.3 %
Extraction speed 4.4 X
Track quality 100.0 %
Test CRC D5653272
Copy CRC D5653272
Track not present in AccurateRip database
Copy OK
Track 18
Filename G:\......POSTSSS\Freda Payne - Contact (1971) [2013 Japan]\18 - Deeper & Deeper (US Single).wav
Peak level 98.3 %
Extraction speed 3.8 X
Track quality 99.9 %
Test CRC 856C8C37
Copy CRC 856C8C37
Track not present in AccurateRip database
Copy OK
Track 19
Filename G:\......POSTSSS\Freda Payne - Contact (1971) [2013 Japan]\19 - Band Of Gold (Alt. Version).wav
Peak level 98.3 %
Extraction speed 4.0 X
Track quality 99.9 %
Test CRC 1B814CE9
Copy CRC 1B814CE9
Track not present in AccurateRip database
Copy OK
None of the tracks are present in the AccurateRip database
No errors occurred
End of status report
==== Log checksum 90AE0ED8C164785233E2BC8CB8B3B062FBC91041AA611363B14769104177153F ====
 
Содержание индексной карты (.CUE)
REM GENRE R&B
REM DATE 1971
REM DISCID 190F6B13
REM COMMENT "ExactAudioCopy v1.0b3"
PERFORMER "Freda Payne"
TITLE "Contact"
FILE "01 - I'm Not Getting Any Better.wav" WAVE
TRACK 01 AUDIO
TITLE "I'm Not Getting Any Better"
PERFORMER "Freda Payne"
INDEX 01 00:00:00
FILE "02 - Suddenly It's Yesterday.wav" WAVE
TRACK 02 AUDIO
TITLE "Suddenly It's Yesterday"
PERFORMER "Freda Payne"
INDEX 01 00:00:00
FILE "03 - You Brought The Joy.wav" WAVE
TRACK 03 AUDIO
TITLE "You Brought The Joy"
PERFORMER "Freda Payne"
INDEX 01 00:00:00
FILE "04 - Bring The Boys Home.wav" WAVE
TRACK 04 AUDIO
TITLE "Bring The Boys Home"
PERFORMER "Freda Payne"
INDEX 01 00:00:00
FILE "05 - You've Got To Love Somebody (Let It Be Me).wav" WAVE
TRACK 05 AUDIO
TITLE "You've Got To Love Somebody (Let It Be Me)"
PERFORMER "Freda Payne"
INDEX 01 00:00:00
FILE "06 - Prelude.wav" WAVE
TRACK 06 AUDIO
TITLE "Prelude"
PERFORMER "Freda Payne"
INDEX 01 00:00:00
FILE "07 - The Road We Didn't Take.wav" WAVE
TRACK 07 AUDIO
TITLE "The Road We Didn't Take"
PERFORMER "Freda Payne"
INDEX 01 00:00:00
FILE "08 - Odds And Ends.wav" WAVE
TRACK 08 AUDIO
TITLE "Odds And Ends"
PERFORMER "Freda Payne"
INDEX 01 00:00:00
FILE "09 - Cherish What Is Dear To You (While It's Near To You).wav" WAVE
TRACK 09 AUDIO
TITLE "Cherish What Is Dear To You (While It's Near To You)"
PERFORMER "Freda Payne"
INDEX 01 00:00:00
FILE "10 - I Shall Not Be Moved.wav" WAVE
TRACK 10 AUDIO
TITLE "I Shall Not Be Moved"
PERFORMER "Freda Payne"
INDEX 01 00:00:00
FILE "11 - Mama's Gone.wav" WAVE
TRACK 11 AUDIO
TITLE "Mama's Gone"
PERFORMER "Freda Payne"
INDEX 01 00:00:00
FILE "12 - You Brought The Joy.wav" WAVE
TRACK 12 AUDIO
TITLE "You Brought The Joy"
PERFORMER "Freda Payne"
INDEX 01 00:00:00
FILE "13 - He's In My Life.wav" WAVE
TRACK 13 AUDIO
TITLE "He's In My Life"
PERFORMER "Freda Payne"
INDEX 01 00:00:00
FILE "14 - How Can I Live Without My Life.wav" WAVE
TRACK 14 AUDIO
TITLE "How Can I Live Without My Life"
PERFORMER "Freda Payne"
INDEX 01 00:00:00
FILE "15 - Just A Woman.wav" WAVE
TRACK 15 AUDIO
TITLE "Just A Woman"
PERFORMER "Freda Payne"
INDEX 01 00:00:00
FILE "16 - Come Back.wav" WAVE
TRACK 16 AUDIO
TITLE "Come Back"
PERFORMER "Freda Payne"
INDEX 01 00:00:00
FILE "17 - You're The Only Bargain I've Got.wav" WAVE
TRACK 17 AUDIO
TITLE "You're The Only Bargain I've Got"
PERFORMER "Freda Payne"
INDEX 01 00:00:00
FILE "18 - Deeper & Deeper (US Single).wav" WAVE
TRACK 18 AUDIO
TITLE "Deeper & Deeper (US Single)"
PERFORMER "Freda Payne"
INDEX 01 00:00:00
FILE "19 - Band Of Gold (Alt. Version).wav" WAVE
TRACK 19 AUDIO
TITLE "Band Of Gold (Alt. Version)"
PERFORMER "Freda Payne"
INDEX 01 00:00:00
Приватный:
Нет (DHT включён)
Размер:
568.57 Мб (596,193,774 байт) » файлов: 39
Участники:
0 раздают, 0 качают (0 участников всего)
Внешние участники:
2 раздают, 1 качают (3 участников всего) [ Обновить ]
Есть вопросы - пишите личное сообщение пользователю M0p94ok.
11:21
71
Нет комментариев. Ваш будет первым!