Поиск

(Soul, R&B) [CD] Ed Motta - Perpetual Gateways - 2016, FLAC (tracks+.cue), lossless

(Soul, R&B) [CD] Ed Motta - Perpetual Gateways - 2016, FLAC (tracks+.cue), lossless
Треклист:
Ed Motta - Perpetual Gateways Жанр: Soul, R&B
Носитель: CD
Год издания: 2016
Издатель (лейбл): Must Have Jazz
Номер по каталогу: 234111
Аудиокодек: FLAC (*.flac)
Тип рипа: tracks+.cue
Битрейт аудио: lossless
Продолжительность: 49:33
Rip by jlgt
Наличие сканов в содержимом раздачи: да
Треклист:
01. Captain's Refusal (4:44)
02. Hypochondriac's Fun (3:26)
03. Good Intentions (5:31)
04. Reader's Choice (3:00)
05. Heritage Deja Vu (4:19)
06. Forgotten Nickname (5:46)
07. The Owner (3:44)
08. A Town In Flames (6:52)
09. I Remebre Julie (4:40)
10. Overblown Overweight (7:31)
Rec.: No Sound Studio, Pasadena, CA, USA, September 2015.
 
 
Лог создания рипа
Exact Audio Copy V1.0 beta 3 from 29. August 2011
EAC extraction logfile from 16. February 2016, 22:52
Ed Motta / Perpetual Gateways
Used drive : PLEXTOR DVDR PX-L890SA Adapter: 5 ID: 1
Read mode : Secure
Utilize accurate stream : Yes
Defeat audio cache : Yes
Make use of C2 pointers : No
Read offset correction : 6
Overread into Lead-In and Lead-Out : No
Fill up missing offset samples with silence : Yes
Delete leading and trailing silent blocks : No
Null samples used in CRC calculations : Yes
Used interface : Native Win32 interface for Win NT & 2000
Gap handling : Appended to previous track
Used output format : User Defined Encoder
Selected bitrate : 128 kBit/s
Quality : High
Add ID3 tag : No
Command line compressor : C:\Program Files (x86)\Exact Audio Copy\FLAC\FLAC.EXE
Additional command line options : -8 -V -T "ARTIST=%artist%" -T "TITLE=%title%" -T "ALBUM=%albumtitle%" -T "DATE=%year%" -T "TRACKNUMBER=%tracknr%" -T "TOTALTRACKS=%numtracks%" -T "GENRE=%genre%" -T "ALBUMARTIST=%albumartist%" -T "ALBUM ARTIST=%albumartist%" -T "COMMENT=EAC Secure Mode, Test & Copy, AccurateRip, FLAC -8" %source%
TOC of the extracted CD
Track | Start | Length | Start sector | End sector
---------------------------------------------------------
1 | 0:00.00 | 4:43.71 | 0 | 21295
2 | 4:43.71 | 3:25.54 | 21296 | 36724
3 | 8:09.50 | 5:31.14 | 36725 | 61563
4 | 13:40.64 | 3:00.13 | 61564 | 75076
5 | 16:41.02 | 4:18.44 | 75077 | 94470
6 | 20:59.46 | 5:46.22 | 94471 | 120442
7 | 26:45.68 | 3:44.31 | 120443 | 137273
8 | 30:30.24 | 6:51.42 | 137274 | 168140
9 | 37:21.66 | 4:39.47 | 168141 | 189112
10 | 42:01.38 | 7:31.32 | 189113 | 222969
Track 1
Filename E:\01 - Captain's Refusal.wav
Pre-gap length 0:00:02.00
Peak level 96.6 %
Extraction speed 3.7 X
Track quality 100.0 %
Test CRC 68C4A9A4
Copy CRC 68C4A9A4
Track not present in AccurateRip database
Copy OK
Track 2
Filename E:\02 - Hypochondriac's Fun.wav
Peak level 96.6 %
Extraction speed 4.0 X
Track quality 100.0 %
Test CRC 49FB41A1
Copy CRC 49FB41A1
Track not present in AccurateRip database
Copy OK
Track 3
Filename E:\03 - Good Intentions.wav
Peak level 95.8 %
Extraction speed 4.6 X
Track quality 100.0 %
Test CRC A7FA0E07
Copy CRC A7FA0E07
Track not present in AccurateRip database
Copy OK
Track 4
Filename E:\04 - Reader's Choice.wav
Peak level 96.6 %
Extraction speed 4.5 X
Track quality 100.0 %
Test CRC 15836EF7
Copy CRC 15836EF7
Track not present in AccurateRip database
Copy OK
Track 5
Filename E:\05 - Heritage Deja Vu.wav
Peak level 96.6 %
Extraction speed 5.1 X
Track quality 100.0 %
Test CRC A000247F
Copy CRC A000247F
Track not present in AccurateRip database
Copy OK
Track 6
Filename E:\06 - Forgotten Nickname.wav
Peak level 91.1 %
Extraction speed 5.6 X
Track quality 100.0 %
Test CRC 573592F2
Copy CRC 573592F2
Track not present in AccurateRip database
Copy OK
Track 7
Filename E:\07 - The Owner.wav
Peak level 93.5 %
Extraction speed 4.5 X
Track quality 99.9 %
Test CRC FBEC4752
Copy CRC FBEC4752
Track not present in AccurateRip database
Copy OK
Track 8
Filename E:\08 - A Town In Flames.wav
Peak level 93.0 %
Extraction speed 6.4 X
Track quality 100.0 %
Test CRC CBD7CBE1
Copy CRC CBD7CBE1
Track not present in AccurateRip database
Copy OK
Track 9
Filename E:\09 - I Remebre Julie.wav
Peak level 92.6 %
Extraction speed 6.4 X
Track quality 100.0 %
Test CRC 22F4BBA9
Copy CRC 22F4BBA9
Track not present in AccurateRip database
Copy OK
Track 10
Filename E:\10 - Overblown Overweight.wav
Peak level 93.4 %
Extraction speed 7.1 X
Track quality 100.0 %
Test CRC ECA60273
Copy CRC ECA60273
Track not present in AccurateRip database
Copy OK
None of the tracks are present in the AccurateRip database
No errors occurred
End of status report
==== Log checksum FB30F9A7345C59D03E2A76ADC0FB66E4576CEBC32FAC3863A7C5B9949133EACA ====
 
Содержание индексной карты (.CUE)
REM GENRE Jazz
REM DATE 2016
REM DISCID 6C0B9C0A
REM COMMENT "ExactAudioCopy v1.0b3"
PERFORMER "Ed Motta"
TITLE "Perpetual Gateways"
FILE "01 - Captain's Refusal.wav" WAVE
TRACK 01 AUDIO
TITLE "Captain's Refusal"
PERFORMER "Ed Motta"
INDEX 01 00:00:00
FILE "02 - Hypochondriac's Fun.wav" WAVE
TRACK 02 AUDIO
TITLE "Hypochondriac's Fun"
PERFORMER "Ed Motta"
INDEX 01 00:00:00
FILE "03 - Good Intentions.wav" WAVE
TRACK 03 AUDIO
TITLE "Good Intentions"
PERFORMER "Ed Motta"
INDEX 01 00:00:00
FILE "04 - Reader's Choice.wav" WAVE
TRACK 04 AUDIO
TITLE "Reader's Choice"
PERFORMER "Ed Motta"
INDEX 01 00:00:00
FILE "05 - Heritage Deja Vu.wav" WAVE
TRACK 05 AUDIO
TITLE "Heritage Deja Vu"
PERFORMER "Ed Motta"
INDEX 01 00:00:00
FILE "06 - Forgotten Nickname.wav" WAVE
TRACK 06 AUDIO
TITLE "Forgotten Nickname"
PERFORMER "Ed Motta"
INDEX 01 00:00:00
FILE "07 - The Owner.wav" WAVE
TRACK 07 AUDIO
TITLE "The Owner"
PERFORMER "Ed Motta"
INDEX 01 00:00:00
FILE "08 - A Town In Flames.wav" WAVE
TRACK 08 AUDIO
TITLE "A Town In Flames"
PERFORMER "Ed Motta"
INDEX 01 00:00:00
FILE "09 - I Remebre Julie.wav" WAVE
TRACK 09 AUDIO
TITLE "I Remebre Julie"
PERFORMER "Ed Motta"
INDEX 01 00:00:00
FILE "10 - Overblown Overweight.wav" WAVE
TRACK 10 AUDIO
TITLE "Overblown Overweight"
PERFORMER "Ed Motta"
INDEX 01 00:00:00
 
Об альбоме (сборнике)
AllMusic Review by Thom Jurek
4,5 stars out 5
Perpetual Gateways is Ed Motta's first album recorded in the U.S. It's only the second time he's worked with another producer, Kamau Kenyatta (Gregory Porter).The Brazilian songwriter, singer, multi-instrumentalist, producer, and arranger has, on 11 previous albums, displayed a canny ability to realize an astonishing array of musical and lyrical ideas in virtually any genre he chooses. Cut over five days in Los Angeles, Perpetual Gateways features a studio dream team of players: Patrice Rushen on various keyboards, Marvin "Smitty" Smith on drums, bassists Tony Dumas and Cecil McBee, and horn men Rickey Woodard and Curtis Taylor on tenor sax and trumpet, respectively. Like its predecessor, the superb AOR, Perpetual Gateways is structured in halves like a vinyl record. The first leans more toward sophisticated pop, soul, and funk. "Captain's Refusal," with Greg Phillinganes on clavinet, directly references Aja-era Steely Dan with its loping horns, breezy melody, and funky backbeats. "Hypochondriac's Fun" follows suit with an even meatier groove à la Stevie Wonder's Music of My Mind. Rushen delivers a killer piano solo through the funky clavinet and horn vamps. The "Mister Magic" reference on "Good Intentions" is an excellent touch, and it remains funky as the melody develops into something more compelling (Donny Hathaway's M.O. on Extension of a Man comes to mind). Here and on "Reader's Choice," Motta's prodigious vocal gifts shine. The second half of the album contrasts, moving in a contemporary jazz direction. It's accessible, sophisticated, and groove conscious. "Forgotten Nickname" is a spacy ballad framed by Rushen's Rhodes and acoustic piano as they illuminate the intimacy in Motta's tender vocal. A gorgeous flute solo from Hubert Laws adds depth and texture. "The Owner" and "A Town in Flames" are more uptempo. The former showcases Motta's gift for vocal syncopation, and it feels almost like George Duke producing early Andy Bey with lyrics by Ben Sidran. (The words in each song are remarkable. They're alternately humorous, passionate, and poignant.) The latter is a rhythmic powerhouse with Smith double-timing the band as the horns rise to meet him with tough, earthy vamps. "I Remember Julie" is excellent vocal jazz. Motta's voice is sweet but strong. It reins in the knotty melody and elastic rhythms to illuminate the groove. "Overblown and Overweight" is killer modern jazz, Brazilian style. It's unusual for Motta; his compositional focus has almost always revealed the subtleties and complexities of Brazilian jazz harmony rather than its celebrated -- and obvious -- polyrhythmic adornments. But this track is far more Hermeto Pascoal than Joao Gilberto. Motta's wonderful scat singing inspires the band to cut loose and engage in stellar interplay, and Smith and Rushen dazzle. With Perpetual Gateways, Motta builds on the polished pop and R&B of AOR with a more spiritual soul- and jazz-oriented approach. This may be a sequel, but it's one that extends the reach of its predecessor immeasurably. The music may sound familiar on first listen, but similarities vanish on the second, where Motta's complex, refined, and utterly revelatory vision emerges.
Приватный:
Нет (DHT включён)
Размер:
444.09 Мб (465,666,887 байт) » файлов: 28
Участники:
0 раздают, 32 качают (32 участников всего)
Внешние участники:
5 раздают, 1 качают (6 участников всего) [ Обновить ]
Есть вопросы - пишите личное сообщение пользователю M0p94ok.
10:02
102
Нет комментариев. Ваш будет первым!