Поиск

(Soul, R&B) [CD] Bobby Wilson - I'll Be Your Rainbow (1975) - 2013, FLAC (tracks+.cue), lossless

(Soul, R&B) [CD] Bobby Wilson - I'll Be Your Rainbow (1975) - 2013, FLAC (tracks+.cue), lossless
Треклист:
Bobby Wilson - I'll Be Your Rainbow (1975) Жанр: Soul, R&B
Носитель: CD
Год издания: 2013
Издатель (лейбл): Reel Music
Номер по каталогу: PCD 72018
Аудиокодек: FLAC (*.flac)
Тип рипа: tracks+.cue
Битрейт аудио: lossless
Продолжительность: 43:06
Rip by JET 1
Наличие сканов в содержимом раздачи: да
Треклист:
01. Deeper And Deeper (6:23)
02. Hey Girl (Tell Me) (3:52)
03. Let Me (Put Love Back In Your Life) (2:28)
04. I'll Be Your Rainbow (6:34)
05. Here Is Where The Love Is (2:57)
06. Don't Shut Me Out (4:50)
07. You Make Me Feel Good All Over (3:07)
08. I'll Take Good Care Of You (6:11)
09. All I Need (I've Got) (3:23)
10. When I Don't See A Smile On Your Face (3:22)
 
 
Лог создания рипа
Exact Audio Copy V1.0 beta 3 from 29. August 2011
EAC extraction logfile from 23. February 2016, 6:00
Bobby Wilson / I'll Be Your Rainbow
Used drive : GENERIC CDRCB05 Adapter: 4 ID: 0
Read mode : Secure
Utilize accurate stream : Yes
Defeat audio cache : Yes
Make use of C2 pointers : No
Read offset correction : 102
Overread into Lead-In and Lead-Out : No
Fill up missing offset samples with silence : Yes
Delete leading and trailing silent blocks : No
Null samples used in CRC calculations : Yes
Used interface : Native Win32 interface for Win NT & 2000
Gap handling : Appended to previous track
Used output format : User Defined Encoder
Selected bitrate : 1024 kBit/s
Quality : High
Add ID3 tag : No
Command line compressor : C:\Program Files\FLAC\flac.exe
Additional command line options : -8 -V -T "ARTIST=%artist%" -T "TITLE=%title%" -T "ALBUM=%albumtitle%" -T "DATE=%year%" -T "TRACKNUMBER=%tracknr%" -T "GENRE=%genre%" -T "PERFORMER=%albuminterpret%" -T "COMPOSER=%composer%" %haslyrics%--tag-from-file=LYRICS="%lyricsfile%"%haslyrics% -T "ALBUMARTIST=%albumartist%" -T "DISCNUMBER=%cdnumber%" -T "TOTALDISCS=%totalcds%" -T "TOTALTRACKS=%numtracks%" -T "COMMENT=%comment%" %source% -o %dest%
TOC of the extracted CD
Track | Start | Length | Start sector | End sector
---------------------------------------------------------
1 | 0:00.00 | 6:22.71 | 0 | 28720
2 | 6:22.71 | 3:52.29 | 28721 | 46149
3 | 10:15.25 | 2:27.38 | 46150 | 57212
4 | 12:42.63 | 6:34.18 | 57213 | 86780
5 | 19:17.06 | 2:56.40 | 86781 | 100020
6 | 22:13.46 | 4:49.60 | 100021 | 121755
7 | 27:03.31 | 3:07.03 | 121756 | 135783
8 | 30:10.34 | 6:11.13 | 135784 | 163621
9 | 36:21.47 | 3:22.55 | 163622 | 178826
10 | 39:44.27 | 3:21.45 | 178827 | 193946
Track 1
Filename G:\POSTS\Bobby Wilson - I'll Be Your Rainbow (1975) [2013 Reel Music]\01 - Deeper And Deeper.wav
Pre-gap length 0:00:02.00
Peak level 98.8 %
Extraction speed 1.6 X
Track quality 100.0 %
Test CRC 972948F7
Copy CRC 972948F7
Track not present in AccurateRip database
Copy OK
Track 2
Filename G:\POSTS\Bobby Wilson - I'll Be Your Rainbow (1975) [2013 Reel Music]\02 - Hey Girl (Tell Me).wav
Peak level 98.8 %
Extraction speed 1.4 X
Track quality 99.9 %
Test CRC 11364FA9
Copy CRC 11364FA9
Track not present in AccurateRip database
Copy OK
Track 3
Filename G:\POSTS\Bobby Wilson - I'll Be Your Rainbow (1975) [2013 Reel Music]\03 - Let Me (Put Love Back In Your Life).wav
Pre-gap length 0:00:01.37
Peak level 98.8 %
Extraction speed 1.6 X
Track quality 100.0 %
Test CRC 7D742C3C
Copy CRC 7D742C3C
Track not present in AccurateRip database
Copy OK
Track 4
Filename G:\POSTS\Bobby Wilson - I'll Be Your Rainbow (1975) [2013 Reel Music]\04 - I'll Be Your Rainbow.wav
Peak level 98.8 %
Extraction speed 2.0 X
Track quality 100.0 %
Test CRC CAFE65C3
Copy CRC CAFE65C3
Track not present in AccurateRip database
Copy OK
Track 5
Filename G:\POSTS\Bobby Wilson - I'll Be Your Rainbow (1975) [2013 Reel Music]\05 - Here Is Where The Love Is.wav
Peak level 98.8 %
Extraction speed 1.9 X
Track quality 100.0 %
Test CRC 24BAB30D
Copy CRC 24BAB30D
Track not present in AccurateRip database
Copy OK
Track 6
Filename G:\POSTS\Bobby Wilson - I'll Be Your Rainbow (1975) [2013 Reel Music]\06 - Don't Shut Me Out.wav
Peak level 98.8 %
Extraction speed 1.9 X
Track quality 99.9 %
Test CRC 72D48BE6
Copy CRC 72D48BE6
Track not present in AccurateRip database
Copy OK
Track 7
Filename G:\POSTS\Bobby Wilson - I'll Be Your Rainbow (1975) [2013 Reel Music]\07 - You Make Me Feel Good All Over.wav
Pre-gap length 0:00:01.00
Peak level 98.8 %
Extraction speed 2.1 X
Track quality 100.0 %
Test CRC 8C156782
Copy CRC 8C156782
Track not present in AccurateRip database
Copy OK
Track 8
Filename G:\POSTS\Bobby Wilson - I'll Be Your Rainbow (1975) [2013 Reel Music]\08 - I'll Take Good Care Of You.wav
Peak level 98.8 %
Extraction speed 2.2 X
Track quality 99.9 %
Test CRC 747496CA
Copy CRC 747496CA
Track not present in AccurateRip database
Copy OK
Track 9
Filename G:\POSTS\Bobby Wilson - I'll Be Your Rainbow (1975) [2013 Reel Music]\09 - All I Need (I've Got).wav
Pre-gap length 0:00:01.00
Peak level 98.8 %
Extraction speed 2.3 X
Track quality 100.0 %
Test CRC 4A0A6D1D
Copy CRC 4A0A6D1D
Track not present in AccurateRip database
Copy OK
Track 10
Filename G:\POSTS\Bobby Wilson - I'll Be Your Rainbow (1975) [2013 Reel Music]\10 - When I Don't See A Smile On Your Face.wav
Peak level 98.8 %
Extraction speed 2.4 X
Track quality 100.0 %
Test CRC 326A3C06
Copy CRC 326A3C06
Track not present in AccurateRip database
Copy OK
None of the tracks are present in the AccurateRip database
No errors occurred
End of status report
==== Log checksum B42654EE67646D9D7128A6FC98AAD387CA168E157E8F46CF00F902DC95EC3456 ====
 
Содержание индексной карты (.CUE)
REM GENRE Soul
REM DATE 1975
REM DISCID 870A190A
REM COMMENT "ExactAudioCopy v1.0b3"
PERFORMER "Bobby Wilson"
TITLE "I'll Be Your Rainbow"
FILE "01 - Deeper And Deeper.wav" WAVE
TRACK 01 AUDIO
TITLE "Deeper And Deeper"
PERFORMER "Bobby Wilson"
INDEX 01 00:00:00
FILE "02 - Hey Girl (Tell Me).wav" WAVE
TRACK 02 AUDIO
TITLE "Hey Girl (Tell Me)"
PERFORMER "Bobby Wilson"
INDEX 01 00:00:00
TRACK 03 AUDIO
TITLE "Let Me (Put Love Back In Your Life)"
PERFORMER "Bobby Wilson"
INDEX 00 03:50:67
FILE "03 - Let Me (Put Love Back In Your Life).wav" WAVE
INDEX 01 00:00:00
FILE "04 - I'll Be Your Rainbow.wav" WAVE
TRACK 04 AUDIO
TITLE "I'll Be Your Rainbow"
PERFORMER "Bobby Wilson"
INDEX 01 00:00:00
FILE "05 - Here Is Where The Love Is.wav" WAVE
TRACK 05 AUDIO
TITLE "Here Is Where The Love Is"
PERFORMER "Bobby Wilson"
INDEX 01 00:00:00
FILE "06 - Don't Shut Me Out.wav" WAVE
TRACK 06 AUDIO
TITLE "Don't Shut Me Out"
PERFORMER "Bobby Wilson"
INDEX 01 00:00:00
TRACK 07 AUDIO
TITLE "You Make Me Feel Good All Over"
PERFORMER "Bobby Wilson"
INDEX 00 04:48:60
FILE "07 - You Make Me Feel Good All Over.wav" WAVE
INDEX 01 00:00:00
FILE "08 - I'll Take Good Care Of You.wav" WAVE
TRACK 08 AUDIO
TITLE "I'll Take Good Care Of You"
PERFORMER "Bobby Wilson"
INDEX 01 00:00:00
TRACK 09 AUDIO
TITLE "All I Need (I've Got)"
PERFORMER "Bobby Wilson"
INDEX 00 06:10:13
FILE "09 - All I Need (I've Got).wav" WAVE
INDEX 01 00:00:00
FILE "10 - When I Don't See A Smile On Your Face.wav" WAVE
TRACK 10 AUDIO
TITLE "When I Don't See A Smile On Your Face"
PERFORMER "Bobby Wilson"
INDEX 01 00:00:00
Приватный:
Нет (DHT включён)
Размер:
313.95 Мб (329,201,697 байт) » файлов: 21
Участники:
0 раздают, 0 качают (0 участников всего)
Внешние участники:
1 раздают, 0 качают (1 участников всего) [ Обновить ]
Есть вопросы - пишите личное сообщение пользователю M0p94ok.
10:09
79
Нет комментариев. Ваш будет первым!