Поиск

(Soul, R&B) [CD] Betty Wright - Betty Travelin' In The Wright Circle (1979) - 2016, FLAC (tracks+.cue), lossless

(Soul, R&B) [CD] Betty Wright - Betty Travelin' In The Wright Circle (1979) - 2016, FLAC (tracks+.cue), lossless
Треклист:
Betty Wright - Betty Travelin' In The Wright Circle (1979) Жанр: Soul, R&B
Носитель: CD
Страна-производитель диска: Japan
Год издания: 2016
Издатель (лейбл): Solid Records Japan
Номер по каталогу: CDSOL-5631
Аудиокодек: FLAC (*.flac)
Тип рипа: tracks+.cue
Битрейт аудио: lossless
Продолжительность: 39:13
Rip by JET 1
Наличие сканов в содержимом раздачи: да
Треклист:
01. I'm Telling You Now (4:45)
02. Child Of The Man (4:25)
03. You're Just What I Need (3:50)
04. My Love Is (5:49)
05. Open The Door To Your Heart / Love Train (5:17)
06. I Believe It's Love (4:00)
07. Thank You For The Many Things You've Done (4:54)
08. Listen To The Music (Dance) (6:13)
 
 
Лог создания рипа
Exact Audio Copy V1.3 from 2. September 2016
EAC extraction logfile from 24. December 2016, 18:38
Betty Wright ‎ / Betty Travelin' In The Wright Circle
Used drive : GENERIC CDRCB05 Adapter: 1 ID: 1
Read mode : Secure
Utilize accurate stream : Yes
Defeat audio cache : Yes
Make use of C2 pointers : No
Read offset correction : 102
Overread into Lead-In and Lead-Out : No
Fill up missing offset samples with silence : Yes
Delete leading and trailing silent blocks : No
Null samples used in CRC calculations : Yes
Used interface : Native Win32 interface for Win NT & 2000
Gap handling : Appended to previous track
Used output format : User Defined Encoder
Selected bitrate : 768 kBit/s
Quality : High
Add ID3 tag : No
Command line compressor : C:\Program Files (x86)\Exact Audio Copy\FLAC\FLAC.EXE
Additional command line options : -6 -V -T "ARTIST=%artist%" -T "TITLE=%title%" -T "ALBUM=%albumtitle%" -T "DATE=%year%" -T "TRACKNUMBER=%tracknr%" -T "GENRE=%genre%" -T "COMMENT=%comment%" -T "BAND=%albuminterpret%" -T "ALBUMARTIST=%albuminterpret%" -T "COMPOSER=%composer%" %haslyrics%--tag-from-file=LYRICS="%lyricsfile%"%haslyrics% -T "DISCNUMBER=%cdnumber%" -T "TOTALDISCS=%totalcds%" -T "TOTALTRACKS=%numtracks%" %hascover%--picture="%coverfile%"%hascover% %source% -o %dest%
TOC of the extracted CD
Track | Start | Length | Start sector | End sector
---------------------------------------------------------
1 | 0:00.00 | 4:44.72 | 0 | 21371
2 | 4:44.72 | 4:25.30 | 21372 | 41276
3 | 9:10.27 | 3:49.44 | 41277 | 58495
4 | 12:59.71 | 5:49.13 | 58496 | 84683
5 | 18:49.09 | 5:16.50 | 84684 | 108433
6 | 24:05.59 | 4:00.11 | 108434 | 126444
7 | 28:05.70 | 4:54.04 | 126445 | 148498
8 | 32:59.74 | 6:12.59 | 148499 | 176457
Track 1
Filename J:\POST\Betty Wright ‎- Betty Travelin' In The Wright Circle (1979) [2016 Japan]\01 I'm Telling You Now.wav
Pre-gap length 0:00:02.00
Peak level 97.8 %
Extraction speed 1.5 X
Track quality 100.0 %
Test CRC 06DAED46
Copy CRC 06DAED46
Track not present in AccurateRip database
Copy OK
Track 2
Filename J:\POST\Betty Wright ‎- Betty Travelin' In The Wright Circle (1979) [2016 Japan]\02 Child Of The Man.wav
Peak level 97.8 %
Extraction speed 1.7 X
Track quality 100.0 %
Test CRC ED3C0AEC
Copy CRC ED3C0AEC
Track not present in AccurateRip database
Copy OK
Track 3
Filename J:\POST\Betty Wright ‎- Betty Travelin' In The Wright Circle (1979) [2016 Japan]\03 You're Just What I Need.wav
Peak level 97.8 %
Extraction speed 1.8 X
Track quality 100.0 %
Test CRC 2E9A3BF1
Copy CRC 2E9A3BF1
Track not present in AccurateRip database
Copy OK
Track 4
Filename J:\POST\Betty Wright ‎- Betty Travelin' In The Wright Circle (1979) [2016 Japan]\04 My Love Is.wav
Peak level 97.8 %
Extraction speed 2.0 X
Track quality 100.0 %
Test CRC EB9D14F5
Copy CRC EB9D14F5
Track not present in AccurateRip database
Copy OK
Track 5
Filename J:\POST\Betty Wright ‎- Betty Travelin' In The Wright Circle (1979) [2016 Japan]\05 Open The Door To Your Heart , Love Train.wav
Peak level 97.8 %
Extraction speed 2.2 X
Track quality 100.0 %
Test CRC 55FCE188
Copy CRC 55FCE188
Track not present in AccurateRip database
Copy OK
Track 6
Filename J:\POST\Betty Wright ‎- Betty Travelin' In The Wright Circle (1979) [2016 Japan]\06 I Believe It's Love.wav
Peak level 97.8 %
Extraction speed 2.2 X
Track quality 100.0 %
Test CRC 0BAC5127
Copy CRC 0BAC5127
Track not present in AccurateRip database
Copy OK
Track 7
Filename J:\POST\Betty Wright ‎- Betty Travelin' In The Wright Circle (1979) [2016 Japan]\07 Thank You For The Many Things You've Done.wav
Peak level 97.8 %
Extraction speed 2.4 X
Track quality 100.0 %
Test CRC 94201B3C
Copy CRC 94201B3C
Track not present in AccurateRip database
Copy OK
Track 8
Filename J:\POST\Betty Wright ‎- Betty Travelin' In The Wright Circle (1979) [2016 Japan]\08 Listen To The Music (Dance).wav
Peak level 97.8 %
Extraction speed 2.6 X
Track quality 100.0 %
Test CRC C28B8AD7
Copy CRC C28B8AD7
Track not present in AccurateRip database
Copy OK
None of the tracks are present in the AccurateRip database
No errors occurred
End of status report
---- CUETools DB Plugin V2.1.6
[CTDB TOCID: ois3Rl37soSEJCB4FL81VrxScIU-] found
Submit result: ois3Rl37soSEJCB4FL81VrxScIU- has been confirmed
Track | CTDB Status
1 | (1/1) Accurately ripped
2 | (1/1) Accurately ripped
3 | (1/1) Accurately ripped
4 | (1/1) Accurately ripped
5 | (1/1) Accurately ripped
6 | (1/1) Accurately ripped
7 | (1/1) Accurately ripped
8 | (1/1) Accurately ripped
==== Log checksum ECB13A8E68C388502BCD2F6CAB0329B640E9EB987374F7F7C735ACCED89F5A7C ====
 
Содержание индексной карты (.CUE)
REM GENRE R&B
REM DATE 1979
REM DISCID 6D093008
REM COMMENT "ExactAudioCopy v1.3"
PERFORMER "Betty Wright"
TITLE "Betty Travelin' In The Wright Circle"
FILE "01. I'm Telling You Now.wav" WAVE
TRACK 01 AUDIO
TITLE "I'm Telling You Now"
PERFORMER "Betty Wright"
INDEX 01 00:00:00
FILE "02. Child Of The Man.wav" WAVE
TRACK 02 AUDIO
TITLE "Child Of The Man"
PERFORMER "Betty Wright"
INDEX 01 00:00:00
FILE "03. You're Just What I Need.wav" WAVE
TRACK 03 AUDIO
TITLE "You're Just What I Need"
PERFORMER "Betty Wright"
INDEX 01 00:00:00
FILE "04. My Love Is.wav" WAVE
TRACK 04 AUDIO
TITLE "My Love Is"
PERFORMER "Betty Wright"
INDEX 01 00:00:00
FILE "05. Open The Door To Your Heart - Love Train.wav" WAVE
TRACK 05 AUDIO
TITLE "Open The Door To Your Heart / Love Train"
PERFORMER "Betty Wright"
INDEX 01 00:00:00
FILE "06. I Believe It's Love.wav" WAVE
TRACK 06 AUDIO
TITLE "I Believe It's Love"
PERFORMER "Betty Wright"
INDEX 01 00:00:00
FILE "07. Thank You For The Many Things You've Done.wav" WAVE
TRACK 07 AUDIO
TITLE "Thank You For The Many Things You've Done"
PERFORMER "Betty Wright"
INDEX 01 00:00:00
FILE "08. Listen To The Music (Dance).wav" WAVE
TRACK 08 AUDIO
TITLE "Listen To The Music (Dance)"
PERFORMER "Betty Wright"
INDEX 01 00:00:00
Приватный:
Нет (DHT включён)
Размер:
405.24 Мб (424,929,235 байт) » файлов: 20
Участники:
0 раздают, 0 качают (0 участников всего)
Внешние участники:
5 раздают, 2 качают (7 участников всего) [ Обновить ]
Есть вопросы - пишите личное сообщение пользователю M0p94ok.
12:48
63
Нет комментариев. Ваш будет первым!