Поиск

(Soul, Jazz-Funk, Fusion, Jazz Vocal) [LP] [24/96] Noriko Miyamoto With Isao Suzuki - Push - 1978, FLAC (tracks), lossless

(Soul, Jazz-Funk, Fusion, Jazz Vocal) [LP] [24/96] Noriko Miyamoto With Isao Suzuki - Push - 1978, FLAC (tracks), lossless
Треклист:

Noriko Miyamoto (宮本典子) With Isao Suzuki (鈴木勲) - Push - 1978
Жанр: Soul, Jazz-Funk, Fusion, Jazz Vocal
Носитель: LP
Страна-производитель диска (релиза): Japan
Год издания: 1978
Издатель (лейбл): Yupiteru Records
Номер по каталогу: YJ25-7002
Страна исполнителя (группы): Japan
Дата / место записи: Teichiku Suginami Studio
Аудио кодек: FLAC (*.flac)
Тип рипа: (tracks)
Битрейт аудио: lossless
Формат: VINYL Rip 24bit 96khz
Источник оцифровки: DeanMcCoppin
Устройство воспроизведения: Audio Technica AT-OC9ML/II
Головка звукоснимателя: Technics SL1200mk5
Предварительный усилитель: Lehmann Audio Black Cube Statement
Программа-оцифровщик: Apogee Duet 2 for Mac > Adobe Audition CC
Наличие сканов в содержимом раздачи: full scans
Продолжительность: 36:21
Источник (релизер):REDacted
Трэклист:
A1 – Monologue (Isao Suzuki, Shihoko Suzuki)
A2 – Stella By Starlight (Victor Young)
B1 – Push (Isao Suzuki, Noriko Miyamoto)
B2 – Cadillac Woman (Isao Suzuki, Shihoko Suzuki)
B3 – My Life (Atsushi Yanagi, Isao Suzuki, Kazumi Yasui)
 
Спектр, АЧХ, Уровень записи
 
01 - Monologue.flac
 
06 - My Life.flac
 
Замер динамического диапазона
foobar2000 1.3.10 / Замер динамического диапазона (DR) 1.1.1
Дата отчёта: 2018-07-28 17:12:13
--------------------------------------------------------------------------------
Анализ: Noriko Miyamoto With Isao Suzuki / Push
--------------------------------------------------------------------------------
DR Пики RMS Продолжительность трека
--------------------------------------------------------------------------------
DR15 0.00 дБ -19.54 дБ 5:27 01-Monologue
DR15 -0.65 дБ -18.33 дБ 6:57 02-Stella By Starlight (Instrumental)
DR12 -4.69 дБ -20.57 дБ 6:56 03-Everything I Have Is Yours
DR15 -1.37 дБ -19.71 дБ 4:17 04-Push
DR16 -0.10 дБ -19.51 дБ 6:36 05-Cadillac Woman
DR14 -3.51 дБ -20.54 дБ 6:09 06-My Life
--------------------------------------------------------------------------------
Количество треков: 6
Реальные значения DR: DR15
Частота: 96000 Гц
Каналов: 2
Разрядность: 24
Битрейт: 2776 кбит/с
Кодек: FLAC
================================================================================
 
Полное описание тракта
Vinyl:
CARTRIDGE: Audio-Technica AT-OC9ML/II (April 2017-present) or AT-150MLX (rips prior to April 2017), Nagaoka MP-500 (rips prior to July 2016)
TURNTABLE: Technics SL-1200mk5
PHONO STAGE: Lehmann Audio Black Cube Statement
SOUND CARD: Apogee Duet 2 for Mac
RECORD CLEANING MACHINE: Record Doctor V (vacuum RCM)
RECORD CLEANING LIQUID: Audio Intelligent Enzymatic Formula (3 min soak) then Super Cleaner (1.5 min soak) or Premium One-Step Formula no. 6 (6 min soak)
STYLUS CLEANING: Onzow Zerodust
Computer:
RECORDING SOFTWARE: Adobe Audition CC
OS: Mac OS X 10.9 "Mavericks"
POST-PROCESSING SOFTWARE: iZotope RX 6 Declicker, Denoiser
Vinyl: iZotope DeClicker and Audition's built-in declicker plugin were used to eliminate clicks and pops. Manual declicking is used. iZotope DeNoiser was used to eliminate any low-frequency rumble (below 40 Hz)
Cassettes: stereo imbalance is normalized if it's apparent. Otherwise, left as is.
Everything is normalized to -0.1 dB, as is without any compression applied.

 
Матрицы
 
Back
 
Состав
Bass [Wood, Piccolo] – Isao Suzuki
Drums – Akira Doi
Electric Bass – Tatsuhiko Hizawa
Guitar [Gut, Electric], Guitar Synthesizer – Kazumasa Akiyama
Percussion – Tatsuji Yokoyama
Piano, Keyboards [Solina] – Masanori Sasaji
Producer – Isao Suzuki, Tadao Shimo
Rhythm Guitar – Yuji Karaki
Vocals – Noriko Miyamoto

Приватный:
Нет (DHT включён)
Размер:
750.94 Мб (787,413,572 байт) » файлов: 16
Участники:
0 раздают, 2 качают (2 участников всего)
Внешние участники:
2 раздают, 1 качают (3 участников всего) [ Обновить ]
Скорость:
1.63 Мб/c 335.00 байт/c
For power users only: no seeders - write to support@pro-jazz.com. Для power user: нет сидеров - пишите на support@pro-jazz.com.
01:03
464
Нет комментариев. Ваш будет первым!