Поиск

(Soul-Jazz, Contemporary Jazz) [CD] Sean Khan - Slow Burner - 2011, FLAC (tracks+.cue), lossless

(Soul-Jazz, Contemporary Jazz) [CD] Sean Khan - Slow Burner - 2011, FLAC (tracks+.cue), lossless
Треклист:
Sean Khan - Slow Burner
Жанр: Soul-Jazz, Contemporary Jazz
Носитель: CD
Страна-производитель диска (релиза): EU
Год издания: 2011
Издатель (лейбл): Far Out Recordings
Номер по каталогу: FARO158CD
Аудиокодек: FLAC (*.flac)
Тип рипа: tracks+.cue
Битрейт аудио: lossless
Продолжительность: 65:08
Источник (релизер): nefir
Наличие сканов в содержимом раздачи: нет
Треклист:
01. Fluxman (6:17)
02. Golden Lady (4:02)
03. Hope Not Hate (1:42)
04. Pinky Annie (6:03)
05. What Is Jazz? (8:53)
06. Castro de Castro (3:25)
07. El Presidente (8:55)
08. Long Way to Go (4:27)
09. Mahjong (7:24)
10. Black Narcissus (5:37)
11. Mahjong (take 2) (8:23)
 
Лог создания рипа
Exact Audio Copy V1.3 from 2. September 2016
EAC extraction logfile from 22. March 2017, 1:01
Sean Khan / Slow Burner
Used drive : ATAPI iHAS124 W Adapter: 1 ID: 0
Read mode : Secure
Utilize accurate stream : Yes
Defeat audio cache : Yes
Make use of C2 pointers : No
Read offset correction : 48
Overread into Lead-In and Lead-Out : No
Fill up missing offset samples with silence : Yes
Delete leading and trailing silent blocks : No
Null samples used in CRC calculations : Yes
Used interface : Native Win32 interface for Win NT & 2000
Gap handling : Appended to previous track
Used output format : User Defined Encoder
Selected bitrate : 1024 kBit/s
Quality : High
Add ID3 tag : No
Command line compressor : C:\Program Files (x86)\FLAC Frontend\tools\flac.exe
Additional command line options : -8 -V -T "ARTIST=%artist%" -T "TITLE=%title%" -T "ALBUM=%albumtitle%" -T "DATE=%year%" -T "TRACKNUMBER=%tracknr%" %source% -o %dest%
TOC of the extracted CD
Track | Start | Length | Start sector | End sector
---------------------------------------------------------
1 | 0:00.00 | 6:16.45 | 0 | 28244
2 | 6:16.45 | 4:01.73 | 28245 | 46392
3 | 10:18.43 | 1:42.20 | 46393 | 54062
4 | 12:00.63 | 6:02.62 | 54063 | 81274
5 | 18:03.50 | 8:53.12 | 81275 | 121261
6 | 26:56.62 | 3:24.48 | 121262 | 136609
7 | 30:21.35 | 8:55.29 | 136610 | 176763
8 | 39:16.64 | 4:26.39 | 176764 | 196752
9 | 43:43.28 | 7:24.32 | 196753 | 230084
10 | 51:07.60 | 5:37.34 | 230085 | 255393
11 | 56:45.19 | 8:22.40 | 255394 | 293083
Track 1
Filename H:\#flac rips\01 Sean Khan - Fluxman.wav
Pre-gap length 0:00:02.00
Peak level 100.0 %
Extraction speed 4.8 X
Track quality 100.0 %
Test CRC AD3FBDC5
Copy CRC AD3FBDC5
Track not present in AccurateRip database
Copy OK
Track 2
Filename H:\#flac rips\02 Sean Khan - Golden Lady.wav
Peak level 100.0 %
Extraction speed 5.2 X
Track quality 100.0 %
Test CRC B1D3F40A
Copy CRC B1D3F40A
Track not present in AccurateRip database
Copy OK
Track 3
Filename H:\#flac rips\03 Sean Khan - Hope Not Hate.wav
Peak level 100.0 %
Extraction speed 2.5 X
Track quality 99.8 %
Test CRC 83FB676E
Copy CRC 83FB676E
Track not present in AccurateRip database
Copy OK
Track 4
Filename H:\#flac rips\04 Sean Khan - Pinky Annie.wav
Peak level 100.0 %
Extraction speed 6.1 X
Track quality 100.0 %
Test CRC 6BA44222
Copy CRC 6BA44222
Track not present in AccurateRip database
Copy OK
Track 5
Filename H:\#flac rips\05 Sean Khan - What Is Jazz_.wav
Peak level 100.0 %
Extraction speed 5.8 X
Track quality 99.9 %
Test CRC 51514B82
Copy CRC 51514B82
Track not present in AccurateRip database
Copy OK
Track 6
Filename H:\#flac rips\06 Sean Khan - Castro de Castro.wav
Peak level 100.0 %
Extraction speed 6.8 X
Track quality 100.0 %
Test CRC 217E9046
Copy CRC 217E9046
Track not present in AccurateRip database
Copy OK
Track 7
Filename H:\#flac rips\07 Sean Khan - El presidente.wav
Peak level 100.0 %
Extraction speed 7.9 X
Track quality 100.0 %
Test CRC 79177E70
Copy CRC 79177E70
Track not present in AccurateRip database
Copy OK
Track 8
Filename H:\#flac rips\08 Sean Khan - Long Way to Go.wav
Peak level 100.0 %
Extraction speed 7.9 X
Track quality 100.0 %
Test CRC 1DA9F75E
Copy CRC 1DA9F75E
Track not present in AccurateRip database
Copy OK
Track 9
Filename H:\#flac rips\09 Sean Khan - Mahjong.wav
Peak level 100.0 %
Extraction speed 8.7 X
Track quality 100.0 %
Test CRC 19111C36
Copy CRC 19111C36
Track not present in AccurateRip database
Copy OK
Track 10
Filename H:\#flac rips\10 Sean Khan - Black Narcissus.wav
Peak level 100.0 %
Extraction speed 8.8 X
Track quality 100.0 %
Test CRC A302E17F
Copy CRC A302E17F
Track not present in AccurateRip database
Copy OK
Track 11
Filename H:\#flac rips\11 Sean Khan - Mahjong - Take 2 (Bonus Track).wav
Peak level 100.0 %
Extraction speed 9.5 X
Track quality 100.0 %
Test CRC 83882AFF
Copy CRC 83882AFF
Track not present in AccurateRip database
Copy OK
None of the tracks are present in the AccurateRip database
No errors occurred
End of status report
---- CUETools DB Plugin V2.1.6
[CTDB TOCID: ucQndWRxywwwg3fyVwe5TspF8uk-] disk not present in database
Submit result: ucQndWRxywwwg3fyVwe5TspF8uk- has been uploaded
==== Log checksum 1818147CEBC1B31C27E29BBC9DB6727161A2BA9CBC2B39F7C4BB5325C4C18E75 ====
 
Содержание индексной карты (.CUE)
REM GENRE Jazz
REM DATE 2011
REM DISCID 940F430B
REM COMMENT "ExactAudioCopy v1.3"
PERFORMER "Sean Khan"
TITLE "Slow Burner"
FILE "01 - Fluxman.wav" WAVE
TRACK 01 AUDIO
TITLE "Fluxman"
PERFORMER "Sean Khan"
INDEX 01 00:00:00
FILE "02 - Golden Lady.wav" WAVE
TRACK 02 AUDIO
TITLE "Golden Lady"
PERFORMER "Sean Khan"
INDEX 01 00:00:00
FILE "03 - Hope Not Hate.wav" WAVE
TRACK 03 AUDIO
TITLE "Hope Not Hate"
PERFORMER "Sean Khan"
INDEX 01 00:00:00
FILE "04 - Pinky Annie.wav" WAVE
TRACK 04 AUDIO
TITLE "Pinky Annie"
PERFORMER "Sean Khan"
INDEX 01 00:00:00
FILE "05 - What Is Jazz.wav" WAVE
TRACK 05 AUDIO
TITLE "What Is Jazz?"
PERFORMER "Sean Khan"
INDEX 01 00:00:00
FILE "06 - Castro de Castro.wav" WAVE
TRACK 06 AUDIO
TITLE "Castro de Castro"
PERFORMER "Sean Khan"
INDEX 01 00:00:00
FILE "07 - El Presidente.wav" WAVE
TRACK 07 AUDIO
TITLE "El Presidente"
PERFORMER "Sean Khan"
INDEX 01 00:00:00
FILE "08 - Long Way to Go.wav" WAVE
TRACK 08 AUDIO
TITLE "Long Way to Go"
PERFORMER "Sean Khan"
INDEX 01 00:00:00
FILE "09 - Mahjong.wav" WAVE
TRACK 09 AUDIO
TITLE "Mahjong"
PERFORMER "Sean Khan"
INDEX 01 00:00:00
FILE "10 - Black Narcissus.wav" WAVE
TRACK 10 AUDIO
TITLE "Black Narcissus"
PERFORMER "Sean Khan"
INDEX 01 00:00:00
FILE "11 - Mahjong (take 2).wav" WAVE
TRACK 11 AUDIO
TITLE "Mahjong (take 2)"
PERFORMER "Sean Khan"
INDEX 01 00:00:00
 
Отчет CUETools
[CUETools log; Date: 22.09.2017 21:03:37; Version: 2.1.5]
[CTDB TOCID: ucQndWRxywwwg3fyVwe5TspF8uk-] found.
Track | CTDB Status
1 | (1/1) Accurately ripped
2 | (1/1) Accurately ripped
3 | (1/1) Accurately ripped
4 | (1/1) Accurately ripped
5 | (1/1) Accurately ripped
6 | (1/1) Accurately ripped
7 | (1/1) Accurately ripped
8 | (1/1) Accurately ripped
9 | (1/1) Accurately ripped
10 | (1/1) Accurately ripped
11 | (1/1) Accurately ripped
[AccurateRip ID: 0018b7d8-00da6aec-940f430b] found.
Track [ CRC | V2 ] Status
01 [fda7d17b|4f8505ce] (0+1/1) Accurately ripped
02 [932ab3ba|efad20da] (0+1/1) Accurately ripped
03 [b09b1e59|3a1c6056] (0+1/1) Accurately ripped
04 [9baf8f09|db78834f] (0+1/1) Accurately ripped
05 [5f7fcb02|9e44454f] (0+1/1) Accurately ripped
06 [84fa075b|319cb162] (0+1/1) Accurately ripped
07 [ae44da6a|5bffbf48] (0+1/1) Accurately ripped
08 [23494fac|6de5d17c] (0+1/1) Accurately ripped
09 [368cad71|ce7b7855] (0+1/1) Accurately ripped
10 [5b6ca7d2|6eac4f36] (0+1/1) Accurately ripped
11 [c40dafb9|13cec6ac] (0+1/1) Accurately ripped
Track Peak [ CRC32 ] [W/O NULL] [ LOG ]
-- 100,0 [FA75BF81] [76079A92]
01 100,0 [AD3FBDC5] [11FDB4FF] CRC32
02 100,0 [B1D3F40A] [8C98D7CD] CRC32
03 100,0 [83FB676E] [C07DC147] CRC32
04 100,0 [6BA44222] [A13BFE25] CRC32
05 100,0 [51514B82] [D4C70DD0] CRC32
06 100,0 [217E9046] [35760B20] CRC32
07 100,0 [79177E70] [DC82E128] CRC32
08 100,0 [1DA9F75E] [850554A8] CRC32
09 100,0 [19111C36] [B73293A5] CRC32
10 100,0 [A302E17F] [AA21790C] CRC32
11 100,0 [83882AFF] [F3438CFF] CRC32
 
Об альбоме (сборнике)
Alto/soprano saxophonist Sean Khan is a multi instrumentalist visionary mixing classic jazz and incredible improvisation skill. The band leader of cult British soul-jazz outfit SK Radicals, Sean Khan's debut solo record 'Slow Burner' is soulful, eclectic Blue Note standard jazz. Paying homage to Khan's jazz heroes the album comes packed with pulsating grooves that mix contemporary urban sounds with classic jazz. 'Slow Burner' features some of the best young jazz musicians on the London and European jazz scene Laurie Lowe (drums), Mike Edmonds (double bass), Susan Allotey (vocals) and Tim Lapthorne (piano) 'Slow Burner' represents Sean Khan's journey back to one of his main loves: jazz improvisation. His playing pays homage to Coltrane, Henderson, Parker and Shorter and there is also a vocal tribute to Stevie Wonder. 'What is Jazz?' is a political statement delivered via highly recognised San Francisco artist Genevieve Grant (US and UK spoken word community) reciting an essay about what jazz is and what it is becoming. The group sound gives a nod to the contemporary (hip hop, drum n bass) as well as the hard swing of New York and the almost free sound of Europe. The record features the talents of Laurie Lowe (one of the finest young drummers in Europe who has worked with Soweto Kinch and Dave O'Higgins), Mike Edmonds (double bass man for Joe Pass, Kenny Wheeler and has been a mainstay of the British jazz scene for many years), Susan Allotey (vocalist for SK Radicals and throughout Europe, and Tim Lapthorne (pianist for Dave Liebman, Kenny Wheeler, a recording project with Eddie Henderson plus three records under his own name). Sean Khan has released two previous albums as SK Radicals. The first, 'When Will We Belong' (People Records, 2001) was produced by Bugz in the Attic and followed by a string of 12"s on People, Swing City, & Groovement & Freestyle. SK recorded their second album 'Urban Ecletiks' (Freestyle Records, 2009), which spawned singles with remixes from Recloose and Bugz In The Attic and gave route to the Sean Khan sound of jazz steeped in soul and contemporary urban sounds. On 'Slow Burner' Khan immerses himself in jazz to produce his finest album to date. Fitting perfectly in to the high-quality Far Out jazz sound 'Hope Not Hate' stands out as the perfect showcase for Khan's darting, genius sax solos. 'Golden Lady' – a brilliant Stevie Wonder re-work - and 'Long Way To Go', which both feature the vocal talents of Susan Allotey fit perfectly with further instrumental jazz Khan originals. The album wraps up in style with Khan's take on Wayne Shorter and Joe Henderson numbers; his warm and powerful sax making the songs his own. A rare excursion from Brazilian music for Far Out this fine heavyweight jazz effort fits perfectly with the label's legendary jazz-tipped artists such as Azymuth, Joyce, Marcos Valle, BGB & Irakere. A Slow Burner to savoir.
Приватный:
Нет (DHT включён)
Размер:
407.52 Мб (427,317,289 байт) » файлов: 18
Участники:
0 раздают, 0 качают (0 участников всего)
Внешние участники:
2 раздают, 1 качают (3 участников всего) [ Обновить ]
Есть вопросы - пишите личное сообщение пользователю M0p94ok.
14:40
61
Нет комментариев. Ваш будет первым!