Поиск

(Soul, Jazz, Afro-beat, Electrojazz, Samba, World) CéU (CeU) - Дискография (3 альбома) - 2005-2012, FLAC (tracks + .cue), lossless

(Soul, Jazz, Afro-beat, Electrojazz, Samba, World) CéU (CeU) - Дискография (3 альбома) - 2005-2012, FLAC (tracks + .cue), lossless
Треклист:
CéU - Discography (2005-2012)
"...очарование первых лучей солнца после шторма..."
.

.
Жанр: Soul, Jazz, Afrobeat, Electrojazz, Samba, World
Общая продолжительность: 2:14:57
Битрейт аудио: lossless
Официальный сайт
 
2005 - CeU
Год выпуска: 2005
Продолжительность: 0:57:10
Формат: FLAC (tracks + .cue)
Трэклист:
01. Vinheta Quebrante (0:55)
02. Lenda (4:18)
03. Malemolencia (2:54)
04. Roda (5:19)
05. Rainha (3:39)
06. 10 Contados (3:27)
07. Vinheta Dorival (0:32)
08. Mais Um Lamento (4:48)
09. Concrete Jungle (3:29)
10. Veu Da Noite (6:18)
11. Valsa Pra Biu Roque (2:49)
12. Ave Cruz (3:27)
13. O Ronco Da Cuica (3:24)
14. Bobagem (2:19)
15. Samba Na Sola (3:08)
16. Nacao Postal (3:26)
17. Malemolencia [Remix by Instituto] (3:00)
 
Отчет EAC:
Exact Audio Copy V0.99 prebeta 4 from 23. January 2008
EAC extraction logfile from 2. April 2009, 10:52
CйU / CйU
Used drive : _NEC DVD_RW ND-1300A Adapter: 1 ID: 0
Read mode : Secure
Utilize accurate stream : Yes
Defeat audio cache : Yes
Make use of C2 pointers : No
Read offset correction : 48
Overread into Lead-In and Lead-Out : No
Fill up missing offset samples with silence : Yes
Delete leading and trailing silent blocks : No
Null samples used in CRC calculations : Yes
Used interface : Native Win32 interface for Win NT & 2000
Gap handling : Appended to previous track
Used output format : User Defined Encoder
Selected bitrate : 768 kBit/s
Quality : High
Add ID3 tag : No
Command line compressor : C:\Programfiler\FLAC\flac.exe
Additional command line options : -V -8 -T "artist=%a" -T "title=%t" -T "album=%g" -T "date=%y" -T "tracknumber=%n" -T "genre=%m" %s
TOC of the extracted CD
Track | Start | Length | Start sector | End sector
---------------------------------------------------------
1 | 0:00.00 | 0:54.43 | 0 | 4092
2 | 0:54.43 | 4:17.70 | 4093 | 23437
3 | 5:12.38 | 2:54.03 | 23438 | 36490
4 | 8:06.41 | 5:18.47 | 36491 | 60387
5 | 13:25.13 | 3:39.08 | 60388 | 76820
6 | 17:04.21 | 3:26.73 | 76821 | 92343
7 | 20:31.19 | 0:31.41 | 92344 | 94709
8 | 21:02.60 | 4:48.08 | 94710 | 116317
9 | 25:50.68 | 3:29.26 | 116318 | 132018
10 | 29:20.19 | 6:17.56 | 132019 | 160349
11 | 35:38.00 | 2:49.15 | 160350 | 173039
12 | 38:27.15 | 3:27.07 | 173040 | 188571
13 | 41:54.22 | 3:23.44 | 188572 | 203840
14 | 45:17.66 | 2:19.07 | 203841 | 214272
15 | 47:36.73 | 3:07.51 | 214273 | 228348
16 | 50:44.49 | 3:26.23 | 228349 | 243821
17 | 54:10.72 | 2:59.60 | 243822 | 257306
18 | 59:42.57 | 6:07.03 | 268707 | 296234
Track 1
Filename C:\EAC rips\CйU - 2005 - CйU\01 - Vinheta Quebrante.wav
Pre-gap length 0:00:02.00
Peak level 99.9 %
Track quality 100.0 %
Test CRC FC969EC7
Copy CRC FC969EC7
Track not present in AccurateRip database
Copy OK
Track 2
Filename C:\EAC rips\CйU - 2005 - CйU\02 - Lenda.wav
Peak level 99.9 %
Track quality 100.0 %
Test CRC 23D00E21
Copy CRC 23D00E21
Track not present in AccurateRip database
Copy OK
Track 3
Filename C:\EAC rips\CйU - 2005 - CйU\03 - Malemolкncia.wav
Peak level 99.9 %
Track quality 100.0 %
Test CRC 6AAFCAB9
Copy CRC 6AAFCAB9
Track not present in AccurateRip database
Copy OK
Track 4
Filename C:\EAC rips\CйU - 2005 - CйU\04 - Roda.wav
Peak level 99.9 %
Track quality 100.0 %
Test CRC 2E892856
Copy CRC 2E892856
Track not present in AccurateRip database
Copy OK
Track 5
Filename C:\EAC rips\CйU - 2005 - CйU\05 - Rainha.wav
Peak level 99.9 %
Track quality 100.0 %
Test CRC CBAF8B9D
Copy CRC CBAF8B9D
Track not present in AccurateRip database
Copy OK
Track 6
Filename C:\EAC rips\CйU - 2005 - CйU\06 - 10 Contados.wav
Pre-gap length 0:00:00.71
Peak level 99.9 %
Track quality 100.0 %
Test CRC 7019F14D
Copy CRC 7019F14D
Track not present in AccurateRip database
Copy OK
Track 7
Filename C:\EAC rips\CйU - 2005 - CйU\07 - Vinheta Dorival.wav
Pre-gap length 0:00:01.72
Peak level 81.6 %
Track quality 100.0 %
Test CRC 989555BC
Copy CRC 989555BC
Track not present in AccurateRip database
Copy OK
Track 8
Filename C:\EAC rips\CйU - 2005 - CйU\08 - Mais Um Lamento.wav
Peak level 99.9 %
Track quality 100.0 %
Test CRC 623852D6
Copy CRC 623852D6
Track not present in AccurateRip database
Copy OK
Track 9
Filename C:\EAC rips\CйU - 2005 - CйU\09 - Concrete Jungle.wav
Peak level 99.9 %
Track quality 100.0 %
Test CRC 0F1FB4C3
Copy CRC 0F1FB4C3
Track not present in AccurateRip database
Copy OK
Track 10
Filename C:\EAC rips\CйU - 2005 - CйU\10 - Vйu Da Noite.wav
Peak level 99.9 %
Track quality 100.0 %
Test CRC 7E285190
Copy CRC 7E285190
Track not present in AccurateRip database
Copy OK
Track 11
Filename C:\EAC rips\CйU - 2005 - CйU\11 - Valsa Pra Biu Roque.wav
Pre-gap length 0:00:01.72
Peak level 99.9 %
Track quality 100.0 %
Test CRC 30C77B1F
Copy CRC 30C77B1F
Track not present in AccurateRip database
Copy OK
Track 12
Filename C:\EAC rips\CйU - 2005 - CйU\12 - Ave Cruz.wav
Peak level 99.9 %
Track quality 100.0 %
Test CRC B925C51D
Copy CRC B925C51D
Track not present in AccurateRip database
Copy OK
Track 13
Filename C:\EAC rips\CйU - 2005 - CйU\13 - O Ronco Da Cuнca.wav
Peak level 99.9 %
Track quality 100.0 %
Test CRC 73F55EB6
Copy CRC 73F55EB6
Track not present in AccurateRip database
Copy OK
Track 14
Filename C:\EAC rips\CйU - 2005 - CйU\14 - Bobagem.wav
Pre-gap length 0:00:01.72
Peak level 99.9 %
Track quality 100.0 %
Test CRC 351CEE38
Copy CRC 351CEE38
Track not present in AccurateRip database
Copy OK
Track 15
Filename C:\EAC rips\CйU - 2005 - CйU\15 - Samba Na Sola.wav
Pre-gap length 0:00:00.71
Peak level 99.9 %
Track quality 100.0 %
Test CRC 942189F7
Copy CRC 942189F7
Track not present in AccurateRip database
Copy OK
Track 16
Filename C:\EAC rips\CйU - 2005 - CйU\16 - Naзгo Postal.wav
Pre-gap length 0:00:01.72
Peak level 98.8 %
Track quality 99.9 %
Test CRC D059A5F2
Copy CRC D059A5F2
Track not present in AccurateRip database
Copy OK
Track 17
Filename C:\EAC rips\CйU - 2005 - CйU\17 - Malemolкncia [Remix by Instituto].wav
Pre-gap length 0:00:02.00
Peak level 99.9 %
Track quality 99.9 %
Test CRC 29E6E258
Copy CRC 29E6E258
Track not present in AccurateRip database
Copy OK
None of the tracks are present in the AccurateRip database
No errors occurred
End of status report
 
Audiocheker's log
Started at: суббота, 25. 07. 2009. - 0:04.14
17 files found
01 -===- G:\Temp\Ceu\Ceu - Ceu (2005)\01 - Vinheta Quebrante.flac
Extracted successfully
Conclusion: this track is CDDA with probability 100%
Tempfile successfully deleted.
02 -===- G:\Temp\Ceu\Ceu - Ceu (2005)\02 - Lenda.flac
Extracted successfully
Conclusion: this track is CDDA with probability 100%
Tempfile successfully deleted.
03 -===- G:\Temp\Ceu\Ceu - Ceu (2005)\03 - Malemolencia.flac
Extracted successfully
Conclusion: this track is CDDA with probability 100%
Tempfile successfully deleted.
04 -===- G:\Temp\Ceu\Ceu - Ceu (2005)\04 - Roda.flac
Extracted successfully
Conclusion: this track is CDDA with probability 100%
Tempfile successfully deleted.
05 -===- G:\Temp\Ceu\Ceu - Ceu (2005)\05 - Rainha.flac
Extracted successfully
Conclusion: this track is CDDA with probability 100%
Tempfile successfully deleted.
06 -===- G:\Temp\Ceu\Ceu - Ceu (2005)\06 - 10 Contados.flac
Extracted successfully
Conclusion: this track is CDDA with probability 99%
Tempfile successfully deleted.
07 -===- G:\Temp\Ceu\Ceu - Ceu (2005)\07 - Vinheta Dorival.flac
Extracted successfully
Conclusion: could not qualify the source of this track
Tempfile successfully deleted.
08 -===- G:\Temp\Ceu\Ceu - Ceu (2005)\08 - Mais Um Lamento.flac
Extracted successfully
Conclusion: this track is CDDA with probability 100%
Tempfile successfully deleted.
09 -===- G:\Temp\Ceu\Ceu - Ceu (2005)\09 - Concrete Jungle.flac
Extracted successfully
Conclusion: this track is CDDA with probability 99%
Tempfile successfully deleted.
10 -===- G:\Temp\Ceu\Ceu - Ceu (2005)\10 - Veu Da Noite.flac
Extracted successfully
Conclusion: this track is CDDA with probability 100%
Tempfile successfully deleted.
11 -===- G:\Temp\Ceu\Ceu - Ceu (2005)\11 - Valsa Pra Biu Roque.flac
Extracted successfully
Conclusion: this track is CDDA with probability 100%
Tempfile successfully deleted.
12 -===- G:\Temp\Ceu\Ceu - Ceu (2005)\12 - Ave Cruz.flac
Extracted successfully
Conclusion: this track is CDDA with probability 100%
Tempfile successfully deleted.
13 -===- G:\Temp\Ceu\Ceu - Ceu (2005)\13 - O Ronco Da Cuica.flac
Extracted successfully
Conclusion: this track is CDDA with probability 100%
Tempfile successfully deleted.
14 -===- G:\Temp\Ceu\Ceu - Ceu (2005)\14 - Bobagem.flac
Extracted successfully
Conclusion: this track is CDDA with probability 49%
Tempfile successfully deleted.
15 -===- G:\Temp\Ceu\Ceu - Ceu (2005)\15 - Samba Na Sola.flac
Extracted successfully
Conclusion: this track is CDDA with probability 100%
Tempfile successfully deleted.
16 -===- G:\Temp\Ceu\Ceu - Ceu (2005)\16 - Nacao Postal.flac
Extracted successfully
Conclusion: this track is CDDA with probability 99%
Tempfile successfully deleted.
17 -===- G:\Temp\Ceu\Ceu - Ceu (2005)\17 - Malemolencia [Remix by Instituto].flac
Extracted successfully
Conclusion: this track is CDDA with probability 100%
Tempfile successfully deleted.
Finished at: суббота, 25. 07. 2009. - 0:18.04 (operation time: 0:13.49)
 
.cue
REM GENRE Latin
REM DATE 2005
REM DISCID EE0F6D12
REM COMMENT "ExactAudioCopy v0.99pb4"
FILE "01 - Vinheta Quebrante.flac" WAVE
TRACK 01 AUDIO
INDEX 01 00:00:00
FILE "02 - Lenda.flac" WAVE
TRACK 02 AUDIO
INDEX 01 00:00:00
FILE "03 - Malemolкncia.flac" WAVE
TRACK 03 AUDIO
INDEX 01 00:00:00
FILE "04 - Roda.flac" WAVE
TRACK 04 AUDIO
INDEX 01 00:00:00
FILE "05 - Rainha.flac" WAVE
TRACK 05 AUDIO
INDEX 01 00:00:00
TRACK 06 AUDIO
INDEX 00 03:38:12
FILE "06 - 10 Contados.flac" WAVE
INDEX 01 00:00:00
TRACK 07 AUDIO
INDEX 00 03:25:01
FILE "07 - Vinheta Dorival.flac" WAVE
INDEX 01 00:00:00
FILE "08 - Mais Um Lamento.flac" WAVE
TRACK 08 AUDIO
INDEX 01 00:00:00
FILE "09 - Concrete Jungle.flac" WAVE
TRACK 09 AUDIO
INDEX 01 00:00:00
FILE "10 - Vйu Da Noite.flac" WAVE
TRACK 10 AUDIO
INDEX 01 00:00:00
TRACK 11 AUDIO
INDEX 00 06:15:59
FILE "11 - Valsa Pra Biu Roque.flac" WAVE
INDEX 01 00:00:00
FILE "12 - Ave Cruz.flac" WAVE
TRACK 12 AUDIO
INDEX 01 00:00:00
FILE "13 - O Ronco Da Cuнca.flac" WAVE
TRACK 13 AUDIO
INDEX 01 00:00:00
TRACK 14 AUDIO
INDEX 00 03:21:47
FILE "14 - Bobagem.flac" WAVE
INDEX 01 00:00:00
TRACK 15 AUDIO
INDEX 00 02:18:11
FILE "15 - Samba Na Sola.flac" WAVE
INDEX 01 00:00:00
TRACK 16 AUDIO
INDEX 00 03:05:54
FILE "16 - Naзгo Postal.flac" WAVE
INDEX 01 00:00:00
TRACK 17 AUDIO
INDEX 00 03:24:23
FILE "17 - Malemolкncia [Remix by Instituto].flac" WAVE
INDEX 01 00:00:00
TRACK 18 MODEx/2xxx
INDEX 00 02:59:60
Доп. информация:
Источник - другой трекер. Сканов нет. Релизер - fuzzfolk.
 
2009 - Vagarosa
Год выпуска: 2009
Формат: FLAC (tracks + .cue)
Трэклист:
01. Sobre o Amor e Seu Trabalho Silencioso (0:56)
02. Cangote (4:03)
03. Comadi (3:31)
04. Bubuia (3:17)
05. Nascente (3:21)
06. Grains de Beaute (3:37)
07. Vira Lata (3:37)
08. Papa (1:22)
09. Ponteiro (3:39)
10. Cordao da Insonia (2:44)
11. Rosa Menina Rosa (4:43)
12. Sonambulo (3:51)
13. Espaconave (3:35)
 
Отчет EAC:
Exact Audio Copy V0.99 prebeta 3 from 28. July 2007
EAC extraction logfile from 21. July 2009, 21:44
Cйu / Vagarosa
Used drive : LITE-ON LTR-12102C Adapter: 1 ID: 1
Read mode : Secure
Utilize accurate stream : Yes
Defeat audio cache : Yes
Make use of C2 pointers : No
Read offset correction : 12
Overread into Lead-In and Lead-Out : No
Fill up missing offset samples with silence : Yes
Delete leading and trailing silent blocks : No
Null samples used in CRC calculations : Yes
Used interface : Native Win32 interface for Win NT & 2000
Gap handling : Appended to previous track
Used output format : User Defined Encoder
Selected bitrate : 128 kBit/s
Quality : High
Add ID3 tag : No
Command line compressor : C:\Program Files\Exact Audio Copy\Flac\flac.exe
Additional command line options : -V -8 -T "artist=%a" -T "title=%t" -T "album=%g" -T "date=%y" -T "tracknumber=%n" -T "genre=%m" %s
TOC of the extracted CD
Track | Start | Length | Start sector | End sector
---------------------------------------------------------
1 | 0:00.00 | 0:56.08 | 0 | 4207
2 | 0:56.08 | 4:02.69 | 4208 | 22426
3 | 4:59.02 | 3:30.58 | 22427 | 38234
4 | 8:29.60 | 3:16.53 | 38235 | 52987
5 | 11:46.38 | 3:21.26 | 52988 | 68088
6 | 15:07.64 | 3:36.68 | 68089 | 84356
7 | 18:44.57 | 3:37.28 | 84357 | 100659
8 | 22:22.10 | 1:21.45 | 100660 | 106779
9 | 23:43.55 | 3:38.39 | 106780 | 123168
10 | 27:22.19 | 2:43.56 | 123169 | 135449
11 | 30:06.00 | 4:43.26 | 135450 | 156700
12 | 34:49.26 | 3:51.37 | 156701 | 174062
13 | 38:40.63 | 3:35.26 | 174063 | 190213
Track 1
Filename C:\EACrips\Cйu - 2009 - Vagarosa\01 - Sobre o Amor e Seu Trabalho Silencioso.wav
Pre-gap length 0:00:02.00
Peak level 58.7 %
Track quality 99.8 %
Test CRC 3638BBAF
Copy CRC 3638BBAF
Track not present in AccurateRip database
Copy OK
Track 2
Filename C:\EACrips\Cйu - 2009 - Vagarosa\02 - Cangote.wav
Peak level 95.4 %
Track quality 100.0 %
Test CRC 5FD46B9F
Copy CRC 5FD46B9F
Track not present in AccurateRip database
Copy OK
Track 3
Filename C:\EACrips\Cйu - 2009 - Vagarosa\03 - Comadi.wav
Peak level 96.6 %
Track quality 100.0 %
Test CRC CA450F03
Copy CRC CA450F03
Track not present in AccurateRip database
Copy OK
Track 4
Filename C:\EACrips\Cйu - 2009 - Vagarosa\04 - Bubuia.wav
Pre-gap length 0:00:01.09
Peak level 96.6 %
Track quality 100.0 %
Test CRC 18D1E42F
Copy CRC 18D1E42F
Track not present in AccurateRip database
Copy OK
Track 5
Filename C:\EACrips\Cйu - 2009 - Vagarosa\05 - Nascente.wav
Pre-gap length 0:00:01.57
Peak level 96.6 %
Track quality 100.0 %
Test CRC 4CC23B39
Copy CRC 4CC23B39
Track not present in AccurateRip database
Copy OK
Track 6
Filename C:\EACrips\Cйu - 2009 - Vagarosa\06 - Grains de Beaute.wav
Peak level 99.9 %
Track quality 100.0 %
Test CRC F5355AC5
Copy CRC F5355AC5
Track not present in AccurateRip database
Copy OK
Track 7
Filename C:\EACrips\Cйu - 2009 - Vagarosa\07 - Vira Lata.wav
Pre-gap length 0:00:02.78
Peak level 96.6 %
Track quality 100.0 %
Test CRC 93464BF5
Copy CRC 93464BF5
Track not present in AccurateRip database
Copy OK
Track 8
Filename C:\EACrips\Cйu - 2009 - Vagarosa\08 - Papa.wav
Peak level 96.6 %
Track quality 100.0 %
Test CRC 61B2DBB7
Copy CRC 61B2DBB7
Track not present in AccurateRip database
Copy OK
Track 9
Filename C:\EACrips\Cйu - 2009 - Vagarosa\09 - Ponteiro.wav
Peak level 96.6 %
Track quality 100.0 %
Test CRC 32F8CA19
Copy CRC 32F8CA19
Track not present in AccurateRip database
Copy OK
Track 10
Filename C:\EACrips\Cйu - 2009 - Vagarosa\10 - Cordao da Insonia.wav
Peak level 96.6 %
Track quality 100.0 %
Test CRC 041C5579
Copy CRC 041C5579
Track not present in AccurateRip database
Copy OK
Track 11
Filename C:\EACrips\Cйu - 2009 - Vagarosa\11 - Rosa Menina Rosa.wav
Peak level 96.6 %
Track quality 100.0 %
Test CRC 9C1825C8
Copy CRC 9C1825C8
Track not present in AccurateRip database
Copy OK
Track 12
Filename C:\EACrips\Cйu - 2009 - Vagarosa\12 - Sonambulo.wav
Peak level 96.6 %
Track quality 100.0 %
Test CRC 614FD97F
Copy CRC 614FD97F
Track not present in AccurateRip database
Copy OK
Track 13
Filename C:\EACrips\Cйu - 2009 - Vagarosa\13 - Espaconave.wav
Peak level 96.6 %
Track quality 100.0 %
Test CRC B072DB03
Copy CRC B072DB03
Track not present in AccurateRip database
Copy OK
None of the tracks are present in the AccurateRip database
No errors occurred
End of status report
 
Audiocheker's log
Started at: пятница, 24. 07. 2009. - 23:13.05
13 files found
01 -===- G:\Temp\Ceu\Ceu - Vagarosa (2009 )\01 - Sobre o Amor e Seu Trabalho Silencioso.flac
Extracted successfully
Conclusion: this track is CDDA with probability 100%
Tempfile successfully deleted.
02 -===- G:\Temp\Ceu\Ceu - Vagarosa (2009 )\02 - Cangote.flac
Extracted successfully
Conclusion: this track is CDDA with probability 100%
Tempfile successfully deleted.
03 -===- G:\Temp\Ceu\Ceu - Vagarosa (2009 )\03 - Comadi.flac
Extracted successfully
Conclusion: this track is CDDA with probability 100%
Tempfile successfully deleted.
04 -===- G:\Temp\Ceu\Ceu - Vagarosa (2009 )\04 - Bubuia.flac
Extracted successfully
Conclusion: this track is CDDA with probability 100%
Tempfile successfully deleted.
05 -===- G:\Temp\Ceu\Ceu - Vagarosa (2009 )\05 - Nascente.flac
Extracted successfully
Conclusion: this track is CDDA with probability 99%
Tempfile successfully deleted.
06 -===- G:\Temp\Ceu\Ceu - Vagarosa (2009 )\06 - Grains de Beaute.flac
Extracted successfully
Conclusion: this track is CDDA with probability 100%
Tempfile successfully deleted.
07 -===- G:\Temp\Ceu\Ceu - Vagarosa (2009 )\07 - Vira Lata.flac
Extracted successfully
Conclusion: this track is CDDA with probability 100%
Tempfile successfully deleted.
08 -===- G:\Temp\Ceu\Ceu - Vagarosa (2009 )\08 - Papa.flac
Extracted successfully
Conclusion: this track is CDDA with probability 100%
Tempfile successfully deleted.
09 -===- G:\Temp\Ceu\Ceu - Vagarosa (2009 )\09 - Ponteiro.flac
Extracted successfully
Conclusion: this track is CDDA with probability 100%
Tempfile successfully deleted.
10 -===- G:\Temp\Ceu\Ceu - Vagarosa (2009 )\10 - Cordao da Insonia.flac
Extracted successfully
Conclusion: this track is CDDA with probability 100%
Tempfile successfully deleted.
11 -===- G:\Temp\Ceu\Ceu - Vagarosa (2009 )\11 - Rosa Menina Rosa.flac
Extracted successfully
Conclusion: this track is CDDA with probability 100%
Tempfile successfully deleted.
12 -===- G:\Temp\Ceu\Ceu - Vagarosa (2009 )\12 - Sonambulo.flac
Extracted successfully
Conclusion: this track is CDDA with probability 100%
Tempfile successfully deleted.
13 -===- G:\Temp\Ceu\Ceu - Vagarosa (2009 )\13 - Espaconave.flac
Extracted successfully
Conclusion: this track is CDDA with probability 99%
Tempfile successfully deleted.
Finished at: пятница, 24. 07. 2009. - 23:24.42 (operation time: 0:11.37)
 
.cue
REM GENRE Latin
REM DATE 2009
REM DISCID 9209E80D
REM COMMENT "ExactAudioCopy v0.99pb3"
FILE "Cйu - 2009 - Vagarosa\01 - Sobre o Amor e Seu Trabalho Silencioso.wav" WAVE
TRACK 01 AUDIO
INDEX 01 00:00:00
FILE "Cйu - 2009 - Vagarosa\02 - Cangote.wav" WAVE
TRACK 02 AUDIO
INDEX 01 00:00:00
FILE "Cйu - 2009 - Vagarosa\03 - Comadi.wav" WAVE
TRACK 03 AUDIO
INDEX 01 00:00:00
TRACK 04 AUDIO
INDEX 00 03:29:51
FILE "Cйu - 2009 - Vagarosa\04 - Bubuia.wav" WAVE
INDEX 01 00:00:00
TRACK 05 AUDIO
INDEX 00 03:15:10
FILE "Cйu - 2009 - Vagarosa\05 - Nascente.wav" WAVE
INDEX 01 00:00:00
FILE "Cйu - 2009 - Vagarosa\06 - Grains de Beaute.wav" WAVE
TRACK 06 AUDIO
INDEX 01 00:00:00
TRACK 07 AUDIO
INDEX 00 03:34:09
FILE "Cйu - 2009 - Vagarosa\07 - Vira Lata.wav" WAVE
INDEX 01 00:00:00
FILE "Cйu - 2009 - Vagarosa\08 - Papa.wav" WAVE
TRACK 08 AUDIO
INDEX 01 00:00:00
FILE "Cйu - 2009 - Vagarosa\09 - Ponteiro.wav" WAVE
TRACK 09 AUDIO
INDEX 01 00:00:00
FILE "Cйu - 2009 - Vagarosa\10 - Cordao da Insonia.wav" WAVE
TRACK 10 AUDIO
INDEX 01 00:00:00
FILE "Cйu - 2009 - Vagarosa\11 - Rosa Menina Rosa.wav" WAVE
TRACK 11 AUDIO
INDEX 01 00:00:00
FILE "Cйu - 2009 - Vagarosa\12 - Sonambulo.wav" WAVE
TRACK 12 AUDIO
INDEX 01 00:00:00
FILE "Cйu - 2009 - Vagarosa\13 - Espaconave.wav" WAVE
TRACK 13 AUDIO
INDEX 01 00:00:00
Доп. информация:
Источник - другой трекер. Сканов нет. Релизер - pedroiathedestroia.
 
2012 - Caravana Sereia Bloom
Год выпуска: 2012
Продолжительность: 0:35:31
Формат: FLAC (tracks + .cue)
Трэклист:
01. Falta de Ar (3:59)
02. Amor de Antigos (2:56)
03. Asfalto e Sal (2:56)
04. Retrovisor (3:49)
05. Teju Na Estrada (0:53)
06. Contravento (2:41)
07. Palhaço (2:06)
08. You Won't Regret It (3:17)
09. Sereia (0:42)
10. Baile de Ilusão (3:14)
11. Fffree (1:07)
12. Streets Bloom (4:31)
13. Chegar Em Mim (3:21)
 
XLD log
X Lossless Decoder version 20120226 (139.1)
XLD extraction logfile from 2012-03-07 14:00:06 +0000
CГ©u / Caravana Sereia Bloom
Used drive : TSSTcorp CDDVDW SE-208AB (revision TS00)
Ripper mode : XLD Secure Ripper
Disable audio cache : OK for the drive with a cache less than 1375KiB
Make use of C2 pointers : NO
Read offset correction : 6
Max retry count : 100
Gap status : Analyzed, Appended
TOC of the extracted CD
Track | Start | Length | Start sector | End sector
---------------------------------------------------------
1 | 00:00:00 | 03:59:10 | 0 | 17934
2 | 03:59:10 | 02:56:30 | 17935 | 31164
3 | 06:55:40 | 02:55:59 | 31165 | 44348
4 | 09:51:24 | 03:48:73 | 44349 | 61521
5 | 13:40:22 | 00:53:16 | 61522 | 65512
6 | 14:33:38 | 02:40:63 | 65513 | 77575
7 | 17:14:26 | 02:05:44 | 77576 | 86994
8 | 19:19:70 | 03:16:48 | 86995 | 101742
9 | 22:36:43 | 00:41:72 | 101743 | 104889
10 | 23:18:40 | 03:14:30 | 104890 | 119469
11 | 26:32:70 | 01:06:39 | 119470 | 124458
12 | 27:39:34 | 04:31:21 | 124459 | 144804
13 | 32:10:55 | 03:20:40 | 144805 | 159844
AccurateRip Summary
Disc not found in AccurateRip DB.
All Tracks
Album gain : -8.39 dB
Peak : 0.977386
Statistics
Read error : 0
Jitter error (maybe fixed) : 0
Retry sector count : 0
Damaged sector count : 0
Track 01
Filename : /Users/darko/Desktop/FLACS/CГ©u - Caravana Sereia Bloom (2012)[FLAC]/01 Falta de Ar.flac
Pre-gap length : 00:02:00
Track gain : -9.05 dB
Peak : 0.977356
CRC32 hash (test run) : BD258B7C
CRC32 hash : BD258B7C
CRC32 hash (skip zero) : 68FD34B2
AccurateRip signature : E8C9F4DB
->Track not present in AccurateRip database.
Statistics
Read error : 0
Jitter error (maybe fixed) : 0
Retry sector count : 0
Damaged sector count : 0
Track 02
Filename : /Users/darko/Desktop/FLACS/CГ©u - Caravana Sereia Bloom (2012)[FLAC]/02 Amor de Antigos.flac
Track gain : -8.97 dB
Peak : 0.977356
CRC32 hash (test run) : 0D03B3B4
CRC32 hash : 0D03B3B4
CRC32 hash (skip zero) : F37D9FA9
AccurateRip signature : E849E26D
->Track not present in AccurateRip database.
Statistics
Read error : 0
Jitter error (maybe fixed) : 0
Retry sector count : 0
Damaged sector count : 0
Track 03
Filename : /Users/darko/Desktop/FLACS/CГ©u - Caravana Sereia Bloom (2012)[FLAC]/03 Asfalto e Sal.flac
Track gain : -7.84 dB
Peak : 0.977356
CRC32 hash (test run) : 226EA58C
CRC32 hash : 226EA58C
CRC32 hash (skip zero) : 362DAACE
AccurateRip signature : A141CB2A
->Track not present in AccurateRip database.
Statistics
Read error : 0
Jitter error (maybe fixed) : 0
Retry sector count : 0
Damaged sector count : 0
Track 04
Filename : /Users/darko/Desktop/FLACS/CГ©u - Caravana Sereia Bloom (2012)[FLAC]/04 Retrovisor.flac
Track gain : -7.49 dB
Peak : 0.977325
CRC32 hash (test run) : EE9BD587
CRC32 hash : EE9BD587
CRC32 hash (skip zero) : 52157D6C
AccurateRip signature : C4B4740B
->Track not present in AccurateRip database.
Statistics
Read error : 0
Jitter error (maybe fixed) : 0
Retry sector count : 0
Damaged sector count : 0
Track 05
Filename : /Users/darko/Desktop/FLACS/CГ©u - Caravana Sereia Bloom (2012)[FLAC]/05 Teju Na Estrada.flac
Track gain : -6.86 dB
Peak : 0.891296
CRC32 hash (test run) : CA656DB8
CRC32 hash : CA656DB8
CRC32 hash (skip zero) : 0F0AB663
AccurateRip signature : 7AD1F071
->Track not present in AccurateRip database.
Statistics
Read error : 0
Jitter error (maybe fixed) : 0
Retry sector count : 0
Damaged sector count : 0
Track 06
Filename : /Users/darko/Desktop/FLACS/CГ©u - Caravana Sereia Bloom (2012)[FLAC]/06 Contravento.flac
Track gain : -7.91 dB
Peak : 0.966125
CRC32 hash (test run) : BD62F15E
CRC32 hash : BD62F15E
CRC32 hash (skip zero) : F82C8B43
AccurateRip signature : 3D4E4A67
->Track not present in AccurateRip database.
Statistics
Read error : 0
Jitter error (maybe fixed) : 0
Retry sector count : 0
Damaged sector count : 0
Track 07
Filename : /Users/darko/Desktop/FLACS/Céu - Caravana Sereia Bloom (2012)[FLAC]/07 Palhaço.flac
Track gain : -7.06 dB
Peak : 0.901611
CRC32 hash (test run) : 4F122CD2
CRC32 hash : 4F122CD2
CRC32 hash (skip zero) : 483E5947
AccurateRip signature : C01E4344
->Track not present in AccurateRip database.
Statistics
Read error : 0
Jitter error (maybe fixed) : 0
Retry sector count : 0
Damaged sector count : 0
Track 08
Filename : /Users/darko/Desktop/FLACS/CГ©u - Caravana Sereia Bloom (2012)[FLAC]/08 You Won't Regret It.flac
Track gain : -9.05 dB
Peak : 0.977356
CRC32 hash (test run) : A5D02EC7
CRC32 hash : A5D02EC7
CRC32 hash (skip zero) : 2C232C97
AccurateRip signature : 8987A85E
->Track not present in AccurateRip database.
Statistics
Read error : 0
Jitter error (maybe fixed) : 0
Retry sector count : 0
Damaged sector count : 0
Track 09
Filename : /Users/darko/Desktop/FLACS/CГ©u - Caravana Sereia Bloom (2012)[FLAC]/09 Sereia.flac
Track gain : -4.50 dB
Peak : 0.741241
CRC32 hash (test run) : CC8F3195
CRC32 hash : CC8F3195
CRC32 hash (skip zero) : E7AD7ED5
AccurateRip signature : 678385E5
->Track not present in AccurateRip database.
Statistics
Read error : 0
Jitter error (maybe fixed) : 0
Retry sector count : 0
Damaged sector count : 0
Track 10
Filename : /Users/darko/Desktop/FLACS/CГ©u - Caravana Sereia Bloom (2012)[FLAC]/10 Baile de IlusГЈo.flac
Track gain : -8.81 dB
Peak : 0.977356
CRC32 hash (test run) : 60311300
CRC32 hash : 60311300
CRC32 hash (skip zero) : 184B25DF
AccurateRip signature : 9A439809
->Track not present in AccurateRip database.
Statistics
Read error : 0
Jitter error (maybe fixed) : 0
Retry sector count : 0
Damaged sector count : 0
Track 11
Filename : /Users/darko/Desktop/FLACS/CГ©u - Caravana Sereia Bloom (2012)[FLAC]/11 Fffree.flac
Track gain : -5.97 dB
Peak : 0.803619
CRC32 hash (test run) : 9F49D3A9
CRC32 hash : 9F49D3A9
CRC32 hash (skip zero) : C69C58F9
AccurateRip signature : 5D7E37A8
->Track not present in AccurateRip database.
Statistics
Read error : 0
Jitter error (maybe fixed) : 0
Retry sector count : 0
Damaged sector count : 0
Track 12
Filename : /Users/darko/Desktop/FLACS/CГ©u - Caravana Sereia Bloom (2012)[FLAC]/12 Streets Bloom.flac
Track gain : -6.67 dB
Peak : 0.977386
CRC32 hash (test run) : 3D40A8AC
CRC32 hash : 3D40A8AC
CRC32 hash (skip zero) : BD694D30
AccurateRip signature : C4787EAA
->Track not present in AccurateRip database.
Statistics
Read error : 0
Jitter error (maybe fixed) : 0
Retry sector count : 0
Damaged sector count : 0
Track 13
Filename : /Users/darko/Desktop/FLACS/CГ©u - Caravana Sereia Bloom (2012)[FLAC]/13 Chegar Em Mim.flac
Track gain : -7.38 dB
Peak : 0.955109
CRC32 hash (test run) : A4999DBE
CRC32 hash : A4999DBE
CRC32 hash (skip zero) : 72C1A5B1
AccurateRip signature : A8BBEFEC
->Track not present in AccurateRip database.
Statistics
Read error : 0
Jitter error (maybe fixed) : 0
Retry sector count : 0
Damaged sector count : 0
No errors occurred
End of status report
 
Audiocheker's log
-----------------------
DON'T MODIFY THIS FILE
-----------------------
PERFORMER: auCDtect Task Manager, ver. 1.5.1RC3 build 1.5.1.4
Copyright (c) 2008-2010 y-soft. All rights reserved
http://y-soft.org
ANALYZER: auCDtect: CD records authenticity detector, version 0.8.2
Copyright (c) 2004 Oleg Berngardt. All rights reserved.
Copyright (c) 2004 Alexander Djourik. All rights reserved.
FILE: 13 Chegar Em Mim.flac
Size: 21392705 Hash: DD64495FD9BD8E108980C64CD940B3EA Accuracy: -m0
Conclusion: CDDA 100%
Signature: B5C73AF47175F65AF6C35B4060C409230FC79D1D
FILE: 12 Streets Bloom.flac
Size: 24562935 Hash: 8A5CE2AA4EE77E0A94AD7545BB169932 Accuracy: -m0
Conclusion: CDDA 100%
Signature: AAC6A63DD2E939CF2F1FA16E60929EFD0FD66A38
FILE: 11 Fffree.flac
Size: 6024890 Hash: F0F0AD1E6C053CEF561AAB609E91C877 Accuracy: -m0
Conclusion: CDDA 100%
Signature: 66071E86CE9DA0B48BF551458EF60CC48CDEB035
FILE: 10 Baile de Ilusão.flac
Size: 20392880 Hash: 91C94AC25C1E533E54838A9BEE112151 Accuracy: -m0
Conclusion: CDDA 100%
Signature: 0F1D078A95CB392CCC65AE23B62CBC0690576B86
FILE: 09 Sereia.flac
Size: 4465316 Hash: 70D744CE4200BCFC2ED901E96DAAF9AC Accuracy: -m0
Conclusion: CDDA 100%
Signature: E1B8EC05734F860556E02219AE6C4BA6CD9F5D6F
FILE: 08 You Won't Regret It.flac
Size: 18905728 Hash: F06F07C3FBA3EFE2B461B94D4513150A Accuracy: -m0
Conclusion: CDDA 100%
Signature: E0C5F830C64EF1B48A40310E2FA33DE1FED2F610
FILE: 07 Palhaço.flac
Size: 10474579 Hash: 385E980483F79BD3B5A7D3CF1B09F7C2 Accuracy: -m0
Conclusion: CDDA 100%
Signature: C13C4C2C9C03A217B26190408D58331349FC6A48
FILE: 06 Contravento.flac
Size: 17166313 Hash: 572E09D3089A97CE791D4D0F5DB75C55 Accuracy: -m0
Conclusion: CDDA 100%
Signature: 9595861A5C857553068D83BC2B33CA6EE3014A7B
FILE: 05 Teju Na Estrada.flac
Size: 5267017 Hash: 57944718EB6C7AA13073EB59479357A5 Accuracy: -m0
Conclusion: CDDA 100%
Signature: C970FE47AE509643C2BB97B9401C420FAE6FDDF0
FILE: 04 Retrovisor.flac
Size: 21938838 Hash: 687D79BA42A1B360576CBCA67FDD408E Accuracy: -m0
Conclusion: CDDA 99%
Signature: 92F996912BC2BC2C01BE361330D78A2B3D29D6B2
FILE: 03 Asfalto e Sal.flac
Size: 18265472 Hash: C283A27F6C0678955CB64C11CCBD8135 Accuracy: -m0
Conclusion: CDDA 100%
Signature: EF719F21E34E985925A321348ADB59EEDCF4BDCC
FILE: 02 Amor de Antigos.flac
Size: 18661249 Hash: FCA3710E7D554E860A30ABC88AE5BF7E Accuracy: -m0
Conclusion: CDDA 100%
Signature: 648B8F01CE1ACB632E3C69E98ACC94B253338601
FILE: 01 Falta de Ar.flac
Size: 24667831 Hash: C65439369EADA0DE60FEBF107A58B7B1 Accuracy: -m0
Conclusion: CDDA 99%
Signature: 27F4BFE06549E4FEFB808B6892F6C71A303B0482
 
.cue
TITLE "Caravana Sereia Bloom"
PERFORMER "CГ©u"
REM GENRE "Traditional"
REM DATE "2012"
REM DISCNUMBER 1
REM TOTALDISCS 1
REM DISCID 9F08530D
REM REPLAYGAIN_ALBUM_GAIN -8.39 dB
REM REPLAYGAIN_ALBUM_PEAK 0.977386
FILE "01 Falta de Ar.flac" WAVE
TRACK 01 AUDIO
TITLE "Falta de Ar"
SONGWRITER "Gui Amabis"
REM REPLAYGAIN_TRACK_GAIN -9.05 dB
REM REPLAYGAIN_TRACK_PEAK 0.977356
INDEX 01 00:00:00
FILE "02 Amor de Antigos.flac" WAVE
TRACK 02 AUDIO
TITLE "Amor de Antigos"
SONGWRITER "CГ©u"
REM REPLAYGAIN_TRACK_GAIN -8.97 dB
REM REPLAYGAIN_TRACK_PEAK 0.977356
INDEX 01 00:00:00
FILE "03 Asfalto e Sal.flac" WAVE
TRACK 03 AUDIO
TITLE "Asfalto e Sal"
SONGWRITER "Gui Amabis/CГ©u"
REM REPLAYGAIN_TRACK_GAIN -7.84 dB
REM REPLAYGAIN_TRACK_PEAK 0.977356
INDEX 01 00:00:00
FILE "04 Retrovisor.flac" WAVE
TRACK 04 AUDIO
TITLE "Retrovisor"
SONGWRITER "CГ©u"
REM REPLAYGAIN_TRACK_GAIN -7.49 dB
REM REPLAYGAIN_TRACK_PEAK 0.977325
INDEX 01 00:00:00
FILE "05 Teju Na Estrada.flac" WAVE
TRACK 05 AUDIO
TITLE "Teju Na Estrada"
SONGWRITER "Gui Amabis"
REM REPLAYGAIN_TRACK_GAIN -6.86 dB
REM REPLAYGAIN_TRACK_PEAK 0.891296
INDEX 01 00:00:00
FILE "06 Contravento.flac" WAVE
TRACK 06 AUDIO
TITLE "Contravento"
SONGWRITER "Lucas Santtana/Gui Amabis"
REM REPLAYGAIN_TRACK_GAIN -7.91 dB
REM REPLAYGAIN_TRACK_PEAK 0.966125
INDEX 01 00:00:00
FILE "07 Palhaço.flac" WAVE
TRACK 07 AUDIO
TITLE "Palhaço"
SONGWRITER "Nelson Cavaquinho/Washington/Oswaldo Martins"
REM REPLAYGAIN_TRACK_GAIN -7.06 dB
REM REPLAYGAIN_TRACK_PEAK 0.901611
INDEX 01 00:00:00
FILE "08 You Won't Regret It.flac" WAVE
TRACK 08 AUDIO
TITLE "You Won't Regret It"
SONGWRITER "Glen Brown/Lloyd Robinson"
REM REPLAYGAIN_TRACK_GAIN -9.05 dB
REM REPLAYGAIN_TRACK_PEAK 0.977356
INDEX 01 00:00:00
FILE "09 Sereia.flac" WAVE
TRACK 09 AUDIO
TITLE "Sereia"
SONGWRITER "CГ©u"
REM REPLAYGAIN_TRACK_GAIN -4.50 dB
REM REPLAYGAIN_TRACK_PEAK 0.741241
INDEX 01 00:00:00
FILE "10 Baile de IlusГЈo.flac" WAVE
TRACK 10 AUDIO
TITLE "Baile de IlusГЈo"
SONGWRITER "CГ©u"
REM REPLAYGAIN_TRACK_GAIN -8.81 dB
REM REPLAYGAIN_TRACK_PEAK 0.977356
INDEX 01 00:00:00
FILE "11 Fffree.flac" WAVE
TRACK 11 AUDIO
TITLE "Fffree"
SONGWRITER "CГ©u"
REM REPLAYGAIN_TRACK_GAIN -5.97 dB
REM REPLAYGAIN_TRACK_PEAK 0.803619
INDEX 01 00:00:00
FILE "12 Streets Bloom.flac" WAVE
TRACK 12 AUDIO
TITLE "Streets Bloom"
SONGWRITER "Lucas Santtana"
REM REPLAYGAIN_TRACK_GAIN -6.67 dB
REM REPLAYGAIN_TRACK_PEAK 0.977386
INDEX 01 00:00:00
FILE "13 Chegar Em Mim.flac" WAVE
TRACK 13 AUDIO
TITLE "Chegar Em Mim"
SONGWRITER "Jorge du Peixe"
REM REPLAYGAIN_TRACK_GAIN -7.38 dB
REM REPLAYGAIN_TRACK_PEAK 0.955109
INDEX 01 00:00:00
 
Об альбоме
Доп. информация:
Источник - другой трекер. Релизер - Stupeflip.
По всем вопросам пишите личное сообщение пользователю M0p94ok.
07:11
301
Нет комментариев. Ваш будет первым!