Поиск

(Soul, Funk, R&B, Gospel) [CD] Ann Nesby - In The Spirit - 2006, FLAC (tracks+.cue), lossless

(Soul, Funk, R&B, Gospel) [CD] Ann Nesby - In The Spirit - 2006, FLAC (tracks+.cue), lossless
Треклист:
Ann Nesby - In The Spirit
Жанр: Soul, Funk, R&B, Gospel
Носитель: CD
Год издания: 2006
Издатель (лейбл): Shanachie
Номер по каталогу: SH 5759
Аудиокодек: FLAC (*.flac)
Тип рипа: tracks+.cue
Битрейт аудио: lossless
Продолжительность: 54:52
Rip by JET 1
Наличие сканов в содержимом раздачи: да
Треклист:
01. I Can Go To God In Prayer (5:35)
02. Rise Up And Walk (4:21)
03. Heaven Is 10 Zillion Light Years Away (6:10)
04. In The Garden (4:08)
05. If It Had Not Been For The Lord (3:13)
06. Grandma's Hands (4:48)
07. If I Can't Say A Word (6:30)
08. Climbing Higher Mountains (3:06)
09. Pass Me Not (3:47)
10. Jesus Paid It All (5:10)
11. Oh How I Love Jesus (3:30)
12. There's Something About That Name (4:34)
Personnel:
Ann Nesby - organ, vocals
Michael Burton - alto saxophone
Melvin Miller - trumpet
Daniel Moore - piano, grand piano, Fender Rhodes piano, keyboards
Kevin Griffin - organ, keyboards
Jorel "J-Fly" Flynn - drums, percussion
 
 
Лог создания рипа
Exact Audio Copy V1.0 beta 3 from 29. August 2011
EAC extraction logfile from 19. February 2015, 13:56
Ann Nesby / In The Spirit
Used drive : ATAPI DVD A DH16A6L-C Adapter: 2 ID: 0
Read mode : Secure
Utilize accurate stream : Yes
Defeat audio cache : Yes
Make use of C2 pointers : No
Read offset correction : 6
Overread into Lead-In and Lead-Out : No
Fill up missing offset samples with silence : Yes
Delete leading and trailing silent blocks : No
Null samples used in CRC calculations : Yes
Used interface : Native Win32 interface for Win NT & 2000
Gap handling : Appended to previous track
Used output format : User Defined Encoder
Selected bitrate : 1024 kBit/s
Quality : High
Add ID3 tag : No
Command line compressor : C:\Program Files\FLAC\flac.exe
Additional command line options : -8 -V -T "ARTIST=%artist%" -T "TITLE=%title%" -T "ALBUM=%albumtitle%" -T "DATE=%year%" -T "TRACKNUMBER=%tracknr%" -T "GENRE=%genre%" -T "PERFORMER=%albuminterpret%" -T "COMPOSER=%composer%" %haslyrics%--tag-from-file=LYRICS="%lyricsfile%"%haslyrics% -T "ALBUMARTIST=%albumartist%" -T "DISCNUMBER=%cdnumber%" -T "TOTALDISCS=%totalcds%" -T "TOTALTRACKS=%numtracks%" -T "COMMENT=%comment%" %source% -o %dest%
TOC of the extracted CD
Track | Start | Length | Start sector | End sector
---------------------------------------------------------
1 | 0:00.00 | 5:35.18 | 0 | 25142
2 | 5:35.18 | 4:20.73 | 25143 | 44715
3 | 9:56.16 | 6:09.43 | 44716 | 72433
4 | 16:05.59 | 4:08.28 | 72434 | 91061
5 | 20:14.12 | 3:13.08 | 91062 | 105544
6 | 23:27.20 | 4:47.48 | 105545 | 127117
7 | 28:14.68 | 6:29.59 | 127118 | 156351
8 | 34:44.52 | 3:06.32 | 156352 | 170333
9 | 37:51.09 | 3:47.11 | 170334 | 187369
10 | 41:38.20 | 5:09.74 | 187370 | 210618
11 | 46:48.19 | 3:30.28 | 210619 | 226396
12 | 50:18.47 | 4:33.46 | 226397 | 246917
Track 1
Filename F:\00000\Ann Nesby - In The Spirit (2006)\01 - I Can Go To God In Prayer.wav
Pre-gap length 0:00:02.00
Peak level 98.8 %
Extraction speed 3.5 X
Track quality 100.0 %
Test CRC FE464BF5
Copy CRC FE464BF5
Accurately ripped (confidence 2) [A0FAE497] (AR v2)
Copy OK
Track 2
Filename F:\00000\Ann Nesby - In The Spirit (2006)\02 - Rise Up And Walk.wav
Pre-gap length 0:00:02.00
Peak level 97.7 %
Extraction speed 3.9 X
Track quality 100.0 %
Test CRC 5F329B78
Copy CRC 5F329B78
Accurately ripped (confidence 2) [33B36652] (AR v2)
Copy OK
Track 3
Filename F:\00000\Ann Nesby - In The Spirit (2006)\03 - Heaven Is 10 Zillion Light Years Away.wav
Pre-gap length 0:00:02.05
Peak level 97.7 %
Extraction speed 4.5 X
Track quality 100.0 %
Test CRC 56B62C49
Copy CRC 56B62C49
Accurately ripped (confidence 2) [DA468FD1] (AR v2)
Copy OK
Track 4
Filename F:\00000\Ann Nesby - In The Spirit (2006)\04 - In The Garden.wav
Pre-gap length 0:00:02.05
Peak level 98.8 %
Extraction speed 4.7 X
Track quality 100.0 %
Test CRC 217549F4
Copy CRC 217549F4
Accurately ripped (confidence 2) [08E63732] (AR v2)
Copy OK
Track 5
Filename F:\00000\Ann Nesby - In The Spirit (2006)\05 - If It Had Not Been For The Lord.wav
Pre-gap length 0:00:02.00
Peak level 97.7 %
Extraction speed 4.8 X
Track quality 100.0 %
Test CRC B8E3EDE9
Copy CRC B8E3EDE9
Accurately ripped (confidence 2) [07795F6B] (AR v2)
Copy OK
Track 6
Filename F:\00000\Ann Nesby - In The Spirit (2006)\06 - Grandma's Hands.wav
Pre-gap length 0:00:02.00
Peak level 97.6 %
Extraction speed 5.3 X
Track quality 100.0 %
Test CRC F4D6997D
Copy CRC F4D6997D
Accurately ripped (confidence 1) [C529026C] (AR v2)
Copy OK
Track 7
Filename F:\00000\Ann Nesby - In The Spirit (2006)\07 - If I Can't Say A Word.wav
Pre-gap length 0:00:02.00
Peak level 98.0 %
Extraction speed 5.0 X
Track quality 99.9 %
Test CRC C943F5F1
Copy CRC C943F5F1
Accurately ripped (confidence 2) [AD8FD139] (AR v2)
Copy OK
Track 8
Filename F:\00000\Ann Nesby - In The Spirit (2006)\08 - Climbing Higher Mountains.wav
Pre-gap length 0:00:01.00
Peak level 97.7 %
Extraction speed 5.6 X
Track quality 100.0 %
Test CRC 76497CE6
Copy CRC 76497CE6
Accurately ripped (confidence 2) [E610B890] (AR v2)
Copy OK
Track 9
Filename F:\00000\Ann Nesby - In The Spirit (2006)\09 - Pass Me Not.wav
Pre-gap length 0:00:02.00
Peak level 97.6 %
Extraction speed 6.0 X
Track quality 100.0 %
Test CRC 6AF0678A
Copy CRC 6AF0678A
Accurately ripped (confidence 2) [D42E15B1] (AR v2)
Copy OK
Track 10
Filename F:\00000\Ann Nesby - In The Spirit (2006)\10 - Jesus Paid It All.wav
Pre-gap length 0:00:02.00
Peak level 97.6 %
Extraction speed 4.8 X
Track quality 99.9 %
Test CRC 87788C5B
Copy CRC 87788C5B
Accurately ripped (confidence 1) [C8258EA9] (AR v2)
Copy OK
Track 11
Filename F:\00000\Ann Nesby - In The Spirit (2006)\11 - Oh How I Love Jesus.wav
Pre-gap length 0:00:02.00
Peak level 97.6 %
Extraction speed 4.1 X
Track quality 99.9 %
Test CRC C1DCC624
Copy CRC C1DCC624
Accurately ripped (confidence 1) [1FAE84EC] (AR v2)
Copy OK
Track 12
Filename F:\00000\Ann Nesby - In The Spirit (2006)\12 - There's Something About That Name.wav
Pre-gap length 0:00:02.05
Peak level 98.8 %
Extraction speed 3.4 X
Track quality 99.8 %
Test CRC 9D3E7829
Copy CRC 9D3E7829
Accurately ripped (confidence 1) [C2E481FB] (AR v2)
Copy OK
All tracks accurately ripped
No errors occurred
End of status report
==== Log checksum 1700B3C6A453D23CA34E29B6418306C0701AF6C17947F1400FB6A3A4E02AD0ED ====
 
Содержание индексной карты (.CUE)
REM GENRE Gospel
REM DATE 2006
REM DISCID 9E0CDC0C
REM COMMENT "ExactAudioCopy v1.0b3"
PERFORMER "Ann Nesby"
TITLE "In The Spirit"
FILE "01 - I Can Go To God In Prayer.wav" WAVE
TRACK 01 AUDIO
TITLE "I Can Go To God In Prayer"
PERFORMER "Ann Nesby"
FLAGS DCP
INDEX 01 00:00:00
TRACK 02 AUDIO
TITLE "Rise Up And Walk"
PERFORMER "Ann Nesby"
FLAGS DCP
INDEX 00 05:33:18
FILE "02 - Rise Up And Walk.wav" WAVE
INDEX 01 00:00:00
TRACK 03 AUDIO
TITLE "Heaven Is 10 Zillion Light Years Away"
PERFORMER "Ann Nesby"
FLAGS DCP
INDEX 00 04:18:68
FILE "03 - Heaven Is 10 Zillion Light Years Away.wav" WAVE
INDEX 01 00:00:00
TRACK 04 AUDIO
TITLE "In The Garden"
PERFORMER "Ann Nesby"
FLAGS DCP
INDEX 00 06:07:38
FILE "04 - In The Garden.wav" WAVE
INDEX 01 00:00:00
TRACK 05 AUDIO
TITLE "If It Had Not Been For The Lord"
PERFORMER "Ann Nesby"
FLAGS DCP
INDEX 00 04:06:28
FILE "05 - If It Had Not Been For The Lord.wav" WAVE
INDEX 01 00:00:00
TRACK 06 AUDIO
TITLE "Grandma's Hands"
PERFORMER "Ann Nesby"
FLAGS DCP
INDEX 00 03:11:08
FILE "06 - Grandma's Hands.wav" WAVE
INDEX 01 00:00:00
TRACK 07 AUDIO
TITLE "If I Can't Say A Word"
PERFORMER "Ann Nesby"
FLAGS DCP
INDEX 00 04:45:48
FILE "07 - If I Can't Say A Word.wav" WAVE
INDEX 01 00:00:00
TRACK 08 AUDIO
TITLE "Climbing Higher Mountains"
PERFORMER "Ann Nesby"
FLAGS DCP
INDEX 00 06:28:59
FILE "08 - Climbing Higher Mountains.wav" WAVE
INDEX 01 00:00:00
TRACK 09 AUDIO
TITLE "Pass Me Not"
PERFORMER "Ann Nesby"
FLAGS DCP
INDEX 00 03:04:32
FILE "09 - Pass Me Not.wav" WAVE
INDEX 01 00:00:00
TRACK 10 AUDIO
TITLE "Jesus Paid It All"
PERFORMER "Ann Nesby"
FLAGS DCP
INDEX 00 03:45:11
FILE "10 - Jesus Paid It All.wav" WAVE
INDEX 01 00:00:00
TRACK 11 AUDIO
TITLE "Oh How I Love Jesus"
PERFORMER "Ann Nesby"
FLAGS DCP
INDEX 00 05:07:74
FILE "11 - Oh How I Love Jesus.wav" WAVE
INDEX 01 00:00:00
TRACK 12 AUDIO
TITLE "There's Something About That Name"
PERFORMER "Ann Nesby"
FLAGS DCP
INDEX 00 03:28:23
FILE "12 - There's Something About That Name.wav" WAVE
INDEX 01 00:00:00
Приватный:
Нет (DHT включён)
Размер:
392.63 Мб (411,698,899 байт) » файлов: 20
Участники:
0 раздают, 0 качают (0 участников всего)
Внешние участники:
2 раздают, 1 качают (3 участников всего) [ Обновить ]
Есть вопросы - пишите личное сообщение пользователю M0p94ok.
04:20
93
Нет комментариев. Ваш будет первым!