Вы используете незарегистрированную версию компонента "Вкладки"!

Поиск

(Soul, Funk, Fusion) The Crusaders ( feat. Joe Sample, Larry Carlton) - Southern Comfort - 1974, FLAC (tracks+.cue), lossless

Треклист:
The Crusaders / Southern Comfort
Жанр: Soul, Funk, Fusion
Год издания диска: 1974
Издатель (лейбл): MCA
Аудиокодек: FLAC (*.flac)
Тип рипа: tracks+.cue
Битрейт аудио: lossless
Продолжительность: 64:04
Источник (релизер): bastun
Наличие сканов в содержимом раздачи: да
Треклист:
1. Stomp And Buck Dance 5:48
2. Greasy Spoon 3:11
3. Get On The Soul Ship (It's Sailing) 3:21
4. Super-Stuff 2:45
5. Double Bubble 2:44
6. The Well's Gone Dry 4:46
7. Southern Comfort 3:07
8. Time Bomb 6:44
9. When There's Love Around 5:28
10. Lilies Of The Nile 9:39
11. Whispering Pines 8:57
12. A Ballad For Joe (Louis) 7:27
Взамен безлогового рипа.
 
Лог создания рипа
Exact Audio Copy V0.99 prebeta 4 from 23. January 2008
EAC extraction logfile from 13. November 2008, 21:09
Crusaders / Southern Comfort
Used drive : PLEXTOR CD-R PREMIUM2 Adapter: 1 ID: 1
Read mode : Secure
Utilize accurate stream : Yes
Defeat audio cache : Yes
Make use of C2 pointers : No
Read offset correction : 30
Overread into Lead-In and Lead-Out : No
Fill up missing offset samples with silence : Yes
Delete leading and trailing silent blocks : No
Null samples used in CRC calculations : Yes
Used interface : Installed external ASPI interface
Gap handling : Appended to previous track
Used output format : User Defined Encoder
Selected bitrate : 32 kBit/s
Quality : High
Add ID3 tag : No
Command line compressor : C:\Programmi\FLAC\flac.exe
Additional command line options : -8 -V -T "ARTIST=%a" -T "TITLE=%t" -T "ALBUM=%g" -T "DATE=%y" -T "TRACKNUMBER=%n" -T "GENRE=%m" -T "COMMENT=EAC FLAC -8" %s
TOC of the extracted CD
Track | Start | Length | Start sector | End sector
---------------------------------------------------------
1 | 0:00.00 | 5:48.57 | 0 | 26156
2 | 5:48.57 | 3:11.15 | 26157 | 40496
3 | 8:59.72 | 3:21.28 | 40497 | 55599
4 | 12:21.25 | 2:45.52 | 55600 | 68026
5 | 15:07.02 | 2:44.38 | 68027 | 80364
6 | 17:51.40 | 4:46.72 | 80365 | 101886
7 | 22:38.37 | 3:07.08 | 101887 | 115919
8 | 25:45.45 | 6:44.55 | 115920 | 146274
9 | 32:30.25 | 5:28.60 | 146275 | 170934
10 | 37:59.10 | 9:39.37 | 170935 | 214396
11 | 47:38.47 | 8:57.13 | 214397 | 254684
12 | 56:35.60 | 7:27.65 | 254685 | 288274
Track 1
Filename C:\My Rip\01 - Stomp And Buck Dance.wav
Pre-gap length 0:00:02.00
Peak level 74.0 %
Track quality 100.0 %
Test CRC D0304CBE
Copy CRC D0304CBE
Accurately ripped (confidence 5) [D5A59ED4]
Copy OK
Track 2
Filename C:\My Rip\02 - Greasy Spoon.wav
Peak level 81.5 %
Track quality 100.0 %
Test CRC CE18E01C
Copy CRC CE18E01C
Accurately ripped (confidence 5) [99378AF5]
Copy OK
Track 3
Filename C:\My Rip\03 - Get On The Soul Ship (It's Sailing).wav
Peak level 63.1 %
Track quality 100.0 %
Test CRC 782CA9E7
Copy CRC 782CA9E7
Accurately ripped (confidence 5) [2E48A7F1]
Copy OK
Track 4
Filename C:\My Rip\04 - Super-Stuff.wav
Pre-gap length 0:00:01.30
Peak level 77.3 %
Track quality 99.9 %
Test CRC 9F2ADCC4
Copy CRC 9F2ADCC4
Accurately ripped (confidence 5) [9F327461]
Copy OK
Track 5
Filename C:\My Rip\05 - Double Bubble.wav
Pre-gap length 0:00:04.36
Peak level 75.3 %
Track quality 100.0 %
Test CRC 11D854F8
Copy CRC 11D854F8
Accurately ripped (confidence 5) [6FA4650C]
Copy OK
Track 6
Filename C:\My Rip\06 - The Well's Gone Dry.wav
Pre-gap length 0:00:01.44
Peak level 73.7 %
Track quality 100.0 %
Test CRC 04216E74
Copy CRC 04216E74
Accurately ripped (confidence 5) [4DE91BD7]
Copy OK
Track 7
Filename C:\My Rip\07 - Southern Comfort.wav
Pre-gap length 0:00:02.80
Peak level 54.4 %
Track quality 100.0 %
Test CRC B1897981
Copy CRC B1897981
Accurately ripped (confidence 5) [59E5E306]
Copy OK
Track 8
Filename C:\My Rip\08 - Time Bomb.wav
Pre-gap length 0:00:01.20
Peak level 83.3 %
Track quality 100.0 %
Test CRC E5C0A9ED
Copy CRC E5C0A9ED
Accurately ripped (confidence 5) [422CF0FD]
Copy OK
Track 9
Filename C:\My Rip\09 - When There's Love Around.wav
Pre-gap length 0:00:06.26
Peak level 67.4 %
Track quality 100.0 %
Test CRC F405789B
Copy CRC F405789B
Accurately ripped (confidence 5) [1A57E4EE]
Copy OK
Track 10
Filename C:\My Rip\10 - Lilies Of The Nile.wav
Pre-gap length 0:00:02.73
Peak level 67.1 %
Track quality 100.0 %
Test CRC BC78BC97
Copy CRC BC78BC97
Accurately ripped (confidence 5) [5355E5FA]
Copy OK
Track 11
Filename C:\My Rip\11 - Whispering Pines.wav
Pre-gap length 0:00:07.89
Peak level 86.5 %
Track quality 100.0 %
Test CRC 75B605BF
Copy CRC 75B605BF
Accurately ripped (confidence 5) [8D6A9BFA]
Copy OK
Track 12
Filename C:\My Rip\12 - A Ballad For Joe (Louis).wav
Pre-gap length 0:00:03.97
Peak level 66.4 %
Track quality 100.0 %
Test CRC 15066C9B
Copy CRC 15066C9B
Accurately ripped (confidence 5) [562DDA99]
Copy OK
All tracks accurately ripped
No errors occurred
End of status report
 
Содержание индексной карты (.CUE)
REM GENRE Jazz
REM DATE 1974
REM DISCID 9E0F030C
REM COMMENT "ExactAudioCopy v0.99pb4"
PERFORMER "Crusaders"
TITLE "Southern Comfort"
FILE "01 - Stomp And Buck Dance.flac" WAVE
TRACK 01 AUDIO
TITLE "Stomp And Buck Dance"
PERFORMER "Crusaders"
INDEX 01 00:00:00
FILE "02 - Greasy Spoon.flac" WAVE
TRACK 02 AUDIO
TITLE "Greasy Spoon"
PERFORMER "Crusaders"
INDEX 01 00:00:00
FILE "03 - Get On The Soul Ship (It's Sailing).flac" WAVE
TRACK 03 AUDIO
TITLE "Get On The Soul Ship (It's Sailing)"
PERFORMER "Crusaders"
INDEX 01 00:00:00
TRACK 04 AUDIO
TITLE "Super-Stuff"
PERFORMER "Crusaders"
INDEX 00 03:20:05
FILE "04 - Super-Stuff.flac" WAVE
INDEX 01 00:00:00
TRACK 05 AUDIO
TITLE "Double Bubble"
PERFORMER "Crusaders"
INDEX 00 02:41:25
FILE "05 - Double Bubble.flac" WAVE
INDEX 01 00:00:00
TRACK 06 AUDIO
TITLE "The Well's Gone Dry"
PERFORMER "Crusaders"
INDEX 00 02:43:05
FILE "06 - The Well's Gone Dry.flac" WAVE
INDEX 01 00:00:00
TRACK 07 AUDIO
TITLE "Southern Comfort"
PERFORMER "Crusaders"
INDEX 00 04:44:12
FILE "07 - Southern Comfort.flac" WAVE
INDEX 01 00:00:00
TRACK 08 AUDIO
TITLE "Time Bomb"
PERFORMER "Crusaders"
INDEX 00 03:05:68
FILE "08 - Time Bomb.flac" WAVE
INDEX 01 00:00:00
TRACK 09 AUDIO
TITLE "When There's Love Around"
PERFORMER "Crusaders"
INDEX 00 06:38:35
FILE "09 - When There's Love Around.flac" WAVE
INDEX 01 00:00:00
TRACK 10 AUDIO
TITLE "Lilies Of The Nile"
PERFORMER "Crusaders"
INDEX 00 05:26:05
FILE "10 - Lilies Of The Nile.flac" WAVE
INDEX 01 00:00:00
TRACK 11 AUDIO
TITLE "Whispering Pines"
PERFORMER "Crusaders"
INDEX 00 09:31:45
FILE "11 - Whispering Pines.flac" WAVE
INDEX 01 00:00:00
TRACK 12 AUDIO
TITLE "A Ballad For Joe (Louis)"
PERFORMER "Crusaders"
INDEX 00 08:53:15
FILE "12 - A Ballad For Joe (Louis).flac" WAVE
INDEX 01 00:00:00
 
Лог проверки качества
AUDIOCHECKER v2.0 beta (build 457) - by Dester - opdester@freemail.hu
~~~~~~~~~~~~~~~~~~~~~~~~~~~~~~~~~~
-=== DO NOT EDIT THIS FILE! ===-
Path: ...\Crusaders - Southern Comfort (1974)
01 -=- 01 - Stomp And Buck Dance.flac -=- MPEG (95%)
02 -=- 02 - Greasy Spoon.flac -=- CDDA (100%)
03 -=- 03 - Get On The Soul Ship (It's Sailing).flac -=- CDDA (100%)
04 -=- 04 - Super-Stuff.flac -=- CDDA (100%)
05 -=- 05 - Double Bubble.flac -=- CDDA (100%)
06 -=- 06 - The Well's Gone Dry.flac -=- CDDA (100%)
07 -=- 07 - Southern Comfort.flac -=- CDDA (100%)
08 -=- 08 - Time Bomb.flac -=- CDDA (100%)
09 -=- 09 - When There's Love Around.flac -=- CDDA (100%)
10 -=- 10 - Lilies Of The Nile.flac -=- CDDA (100%)
11 -=- 11 - Whispering Pines.flac -=- CDDA (100%)
12 -=- 12 - A Ballad For Joe (Louis).flac -=- CDDA (100%)
Summary 92,08% CDDA
137505716
 
Об альбоме (сборнике)
The follow-up to 1973's Unsung Heroes was the first of the group's Blue Thumb efforts to be distributed by ABC Records. The label switch also coincided with the inclusion of lyrical guitarist Larry Carlton as a full-fledged member. Although much of Southern Comfort puts a gloss on ideas made definitive on earlier efforts, the complaints are minimal and this remains the most appealing, multi-faceted incarnation of the band. The first track, "Stomp and Buck Dance," is an offhanded and skilled approach to the group's patently earthy style. The insistent "The Well's Gone Dry" has the edginess of some of the better tracks on Unsung Heroes, and has Carlton doing great work on the bridge. Not surprisingly, it is Carlton's presence here that adjusts the band chemistry and makes the best of Southern Comfort even more so. The best track here, the poignant "When There's Love Around," has Carlton's guitar attaining the perfect sense of longing that meshes well with Joe Sample's trademark Fender Rhodes tones. The last tracks here are also in a thoughtful ballad vein: "Lilies of the Nile" has great horn work from Wilton Felder and Wayne Henderson, and the last track, "A Ballad for Joe (Louis)," is a heartfelt rumination on the death of the famed boxer, featuring Sample's inherent sense of melody. A good representation of the Crusaders' tasteful and intelligent playing, Southern Comfort is more than recommended to their fans.
by Jason Elias
 
Состав
Joe Sample - piano, Fender/Rhodes
Wilton Felder - tenor saxophone, Fender bass
Wayne Henderson - trombone
Larry Carlton - electric guitar
Stix Hooper - drums
Приятных впечатлений!
Any questions - support@pro-jazz.com. Есть вопросы - support@pro-jazz.com
08:17
403
Нет комментариев. Ваш будет первым!