Поиск

(Soul, Funk) [CD] VA - Go Go Power - 1992, FLAC (tracks+.cue), lossless

(Soul, Funk) [CD] VA - Go Go Power - 1992, FLAC (tracks+.cue), lossless
Треклист:
Go Go Power
Жанр: Soul, Funk
Носитель: CD
Год издания: 1992
Издатель (лейбл): Charly R&B
Номер по каталогу: CDARC512
Аудиокодек: FLAC (*.flac)
Тип рипа: tracks+.cue
Битрейт аудио: lossless
Продолжительность: 56:31
Источник (релизер): what.cd
Наличие сканов в содержимом раздачи: да
Треклист:
01. Sugar Pie DeSanto - Go Go Power [02:55]
02. Marlena Shaw - Let's Go Wade In The Water [02:59]
03. Jackie Ross - Jerk & Twine [02:42]
04. Johnny Nash - Love Ain't Nothing [02:15]
05. Billy Stewart - Secret Love [03:03]
06. Sugar Pie DeSanto & Etta James - In The Basement [02:24]
07. Etta James - Mellow Fellow [03:01]
08. Little Milton - Grits Ain't Groceries (All Around The World) [02:45]
09. Tony Clarke - Ain't Love Good, Ain't Love Proud [03:19]
10. Terry Callier - Look At Me Now [02:42]
11. Bobby McClure - Peak Of Love [02:56]
12. Billy Stewart - Everyday I Have The Blues [02:57]
13. Sugar Pie DeSanto & Etta James - Do I Make Myself Clear [02:59]
14. Etta James - Seven Day Fool [02:57]
15. The Knight Brothers - That'll Get It [02:35]
16. Sugar Pie DeSanto - I Don't Wanna Fuss [03:04]
17. Johnny Nash - Strange Feeling [02:54]
18. Jackie Ross - Take Me For A Little While [02:35]
19. James Phelps - Love Is A 5 Letter Word [03:18]
20. Little Milton - Ain't No Big Deal [02:21]
 
Лог создания рипа
Exact Audio Copy V1.0 beta 4 from 7. December 2014
EAC extraction logfile from 19. July 2015, 22:58
Various Artists / Go Go Power
Used drive : TSSTcorpCDDVDW SH-224DB Adapter: 1 ID: 0
Read mode : Secure
Utilize accurate stream : Yes
Defeat audio cache : Yes
Make use of C2 pointers : No
Read offset correction : 6
Overread into Lead-In and Lead-Out : No
Fill up missing offset samples with silence : Yes
Delete leading and trailing silent blocks : No
Null samples used in CRC calculations : Yes
Used interface : Native Win32 interface for Win NT & 2000
Gap handling : Appended to previous track
Used output format : User Defined Encoder
Selected bitrate : 896 kBit/s
Quality : High
Add ID3 tag : No
Command line compressor : C:\Program Files\Exact Audio Copy\Flac\flac.exe
Additional command line options : -6 -V -T "ARTIST=%artist%" -T "TITLE=%title%" -T "ALBUM=%albumtitle%" -T "DATE=%year%" -T "TRACKNUMBER=%tracknr%" -T "GENRE=%genre%" -T "COMMENT=%comment%" %source% -o %dest%
TOC of the extracted CD
Track | Start | Length | Start sector | End sector
---------------------------------------------------------
1 | 0:00.33 | 2:54.25 | 33 | 13107
2 | 2:54.58 | 2:58.70 | 13108 | 26527
3 | 5:53.53 | 2:41.45 | 26528 | 38647
4 | 8:35.23 | 2:15.00 | 38648 | 48772
5 | 10:50.23 | 3:02.07 | 48773 | 62429
6 | 13:52.30 | 2:23.63 | 62430 | 73217
7 | 16:16.18 | 3:00.17 | 73218 | 86734
8 | 19:16.35 | 2:44.33 | 86735 | 99067
9 | 22:00.68 | 3:18.30 | 99068 | 113947
10 | 25:19.23 | 2:41.30 | 113948 | 126052
11 | 28:00.53 | 2:55.15 | 126053 | 139192
12 | 30:55.68 | 2:56.22 | 139193 | 152414
13 | 33:52.15 | 2:58.05 | 152415 | 165769
14 | 36:50.20 | 2:56.15 | 165770 | 178984
15 | 39:46.35 | 2:34.48 | 178985 | 190582
16 | 42:21.08 | 3:03.30 | 190583 | 204337
17 | 45:24.38 | 2:53.62 | 204338 | 217374
18 | 48:18.25 | 2:34.25 | 217375 | 228949
19 | 50:52.50 | 3:17.20 | 228950 | 243744
20 | 54:09.70 | 2:20.53 | 243745 | 254297
Track 1
Filename C:\New Folder\01 - Sugar Pie DeSanto - Go Go Power.wav
Pre-gap length 0:00:02.33
Peak level 95.9 %
Extraction speed 1.9 X
Track quality 100.0 %
Test CRC 3AB33286
Copy CRC 3AB33286
Cannot be verified as accurate (confidence 1) [9ED64D17], AccurateRip returned [B9B652B4] (AR v2)
Copy OK
Track 2
Filename C:\New Folder\02 - Marlena Shaw - Let's Go Wade In The Water.wav
Pre-gap length 0:00:02.53
Peak level 82.9 %
Extraction speed 1.6 X
Track quality 99.9 %
Test CRC 206109A9
Copy CRC 206109A9
Cannot be verified as accurate (confidence 1) [22AD211A], AccurateRip returned [81A61DB6] (AR v2)
Copy OK
Track 3
Filename C:\New Folder\03 - Jackie Ross - Jerk & Twine.wav
Pre-gap length 0:00:02.65
Peak level 90.7 %
Extraction speed 1.9 X
Track quality 100.0 %
Test CRC 100AAA80
Copy CRC 100AAA80
Cannot be verified as accurate (confidence 1) [69A9E411], AccurateRip returned [BC221828] (AR v2)
Copy OK
Track 4
Filename C:\New Folder\04 - Johnny Nash - Love Ain't Nothing.wav
Pre-gap length 0:00:02.00
Peak level 81.6 %
Extraction speed 1.8 X
Track quality 100.0 %
Test CRC 9E1282C8
Copy CRC 9E1282C8
Cannot be verified as accurate (confidence 1) [7028B1DA], AccurateRip returned [CB8E0C30] (AR v2)
Copy OK
Track 5
Filename C:\New Folder\05 - Billy Stewart - Secret Love.wav
Pre-gap length 0:00:02.45
Peak level 87.1 %
Extraction speed 2.0 X
Track quality 100.0 %
Test CRC EC2FCC97
Copy CRC EC2FCC97
Cannot be verified as accurate (confidence 1) [024D7955], AccurateRip returned [7D74C87B] (AR v2)
Copy OK
Track 6
Filename C:\New Folder\06 - Sugar Pie DeSanto & Etta James - In The Basement.wav
Pre-gap length 0:00:01.72
Peak level 81.8 %
Extraction speed 1.9 X
Track quality 100.0 %
Test CRC 76C95C35
Copy CRC 76C95C35
Track not present in AccurateRip database
Copy OK
Track 7
Filename C:\New Folder\07 - Etta James - Mellow Fellow.wav
Pre-gap length 0:00:02.43
Peak level 100.0 %
Extraction speed 1.6 X
Track quality 99.9 %
Test CRC 24216A4F
Copy CRC 24216A4F
Cannot be verified as accurate (confidence 1) [5747372D], AccurateRip returned [E8C2F16B] (AR v2)
Copy OK
Track 8
Filename C:\New Folder\08 - Little Milton - Grits Ain't Groceries (All Around The World).wav
Pre-gap length 0:00:02.57
Peak level 88.8 %
Extraction speed 1.9 X
Track quality 100.0 %
Test CRC 972141A1
Copy CRC 972141A1
Cannot be verified as accurate (confidence 1) [7A16873B], AccurateRip returned [7ED871CC] (AR v2)
Copy OK
Track 9
Filename C:\New Folder\09 - Tony Clarke - Ain't Love Good, Ain't Love Proud.wav
Pre-gap length 0:00:03.00
Peak level 90.2 %
Extraction speed 2.0 X
Track quality 100.0 %
Test CRC CDC2B99D
Copy CRC CDC2B99D
Cannot be verified as accurate (confidence 1) [07136CAE], AccurateRip returned [489FED6D] (AR v2)
Copy OK
Track 10
Filename C:\New Folder\10 - Terry Callier - Look At Me Now.wav
Pre-gap length 0:00:02.58
Peak level 94.1 %
Extraction speed 1.9 X
Track quality 100.0 %
Test CRC 0C402EEE
Copy CRC 0C402EEE
Cannot be verified as accurate (confidence 1) [99643A90], AccurateRip returned [F6821308] (AR v2)
Copy OK
Track 11
Filename C:\New Folder\11 - Bobby McClure - Peak Of Love.wav
Pre-gap length 0:00:02.28
Peak level 87.8 %
Extraction speed 1.9 X
Track quality 100.0 %
Test CRC 361A4063
Copy CRC 361A4063
Cannot be verified as accurate (confidence 1) [8D93E361], AccurateRip returned [3FD6FF83] (AR v2)
Copy OK
Track 12
Filename C:\New Folder\12 - Billy Stewart - Everyday I Have The Blues.wav
Pre-gap length 0:00:03.35
Peak level 79.1 %
Extraction speed 1.7 X
Track quality 99.9 %
Test CRC 727C7F1B
Copy CRC 727C7F1B
Cannot be verified as accurate (confidence 1) [50762688], AccurateRip returned [A3CDDD66] (AR v2)
Copy OK
Track 13
Filename C:\New Folder\13 - Sugar Pie DeSanto & Etta James - Do I Make Myself Clear.wav
Pre-gap length 0:00:02.62
Peak level 65.1 %
Extraction speed 2.0 X
Track quality 100.0 %
Test CRC C8B42018
Copy CRC C8B42018
Cannot be verified as accurate (confidence 1) [AEAE7289], AccurateRip returned [59156054] (AR v2)
Copy OK
Track 14
Filename C:\New Folder\14 - Etta James - Seven Day Fool.wav
Pre-gap length 0:00:02.00
Peak level 85.8 %
Extraction speed 2.0 X
Track quality 100.0 %
Test CRC EF08D04A
Copy CRC EF08D04A
Cannot be verified as accurate (confidence 1) [A81B6E6F], AccurateRip returned [8918DC1F] (AR v2)
Copy OK
Track 15
Filename C:\New Folder\15 - The Knight Brothers - That'll Get It.wav
Pre-gap length 0:00:03.00
Peak level 92.7 %
Extraction speed 1.9 X
Track quality 100.0 %
Test CRC B9BAE232
Copy CRC B9BAE232
Cannot be verified as accurate (confidence 1) [12602519], AccurateRip returned [04B68AF3] (AR v2)
Copy OK
Track 16
Filename C:\New Folder\16 - Sugar Pie DeSanto - I Don't Wanna Fuss.wav
Pre-gap length 0:00:02.70
Peak level 83.5 %
Extraction speed 2.0 X
Track quality 100.0 %
Test CRC 4C31487A
Copy CRC 4C31487A
Cannot be verified as accurate (confidence 1) [84C57A76], AccurateRip returned [361C6226] (AR v2)
Copy OK
Track 17
Filename C:\New Folder\17 - Johnny Nash - Strange Feeling.wav
Pre-gap length 0:00:01.43
Peak level 85.8 %
Extraction speed 2.0 X
Track quality 100.0 %
Test CRC B03A4369
Copy CRC B03A4369
Cannot be verified as accurate (confidence 1) [B04530BC], AccurateRip returned [C41E150C] (AR v2)
Copy OK
Track 18
Filename C:\New Folder\18 - Jackie Ross - Take Me For A Little While.wav
Pre-gap length 0:00:02.20
Peak level 78.5 %
Extraction speed 1.6 X
Track quality 99.9 %
Test CRC 47E14F2F
Copy CRC 47E14F2F
Accurately ripped (confidence 1) [D78C836B] (AR v1)
Copy OK
Track 19
Filename C:\New Folder\19 - James Phelps - Love Is A 5 Letter Word.wav
Pre-gap length 0:00:02.30
Peak level 79.7 %
Extraction speed 2.0 X
Track quality 100.0 %
Test CRC 7262281D
Copy CRC 7262281D
Cannot be verified as accurate (confidence 1) [18DFD014], AccurateRip returned [05B7840B] (AR v2)
Copy OK
Track 20
Filename C:\New Folder\20 - Little Milton - Ain't No Big Deal.wav
Pre-gap length 0:00:02.47
Peak level 96.8 %
Extraction speed 1.9 X
Track quality 100.0 %
Test CRC 62C70210
Copy CRC 62C70210
Cannot be verified as accurate (confidence 1) [5C365F72], AccurateRip returned [0D2D13F3] (AR v2)
Copy OK
1 track(s) accurately ripped
18 track(s) could not be verified as accurate
1 track(s) not present in the AccurateRip database
Some tracks could not be verified as accurate
No errors occurred
End of status report
---- CUETools DB Plugin V2.1.4
[CTDB TOCID: Do1c_oelbyrBMwlfvRwojR8d50Y-] disk not present in database
Submit result: Do1c_oelbyrBMwlfvRwojR8d50Y- has been uploaded
==== Log checksum 14DCE7CE18614C1C0335EB4B4826C6B0874E365D391BFDC35A618FEA8211F212 ====
 
Содержание индексной карты (.CUE)
REM GENRE Soul
REM DATE 1992
REM DISCID 0B0D3E14
REM COMMENT "ExactAudioCopy v1.0b4"
PERFORMER "Various Artists"
TITLE "Go Go Power"
FILE "01 - Sugar Pie DeSanto - Go Go Power.wav" WAVE
TRACK 01 AUDIO
TITLE "Go Go Power"
PERFORMER "Sugar Pie DeSanto"
PREGAP 00:00:33
INDEX 01 00:00:00
TRACK 02 AUDIO
TITLE "Let's Go Wade In The Water"
PERFORMER "Marlena Shaw"
INDEX 00 02:51:47
FILE "02 - Marlena Shaw - Let's Go Wade In The Water.wav" WAVE
INDEX 01 00:00:00
TRACK 03 AUDIO
TITLE "Jerk & Twine"
PERFORMER "Jackie Ross"
INDEX 00 02:56:05
FILE "03 - Jackie Ross - Jerk & Twine.wav" WAVE
INDEX 01 00:00:00
TRACK 04 AUDIO
TITLE "Love Ain't Nothing"
PERFORMER "Johnny Nash"
INDEX 00 02:39:45
FILE "04 - Johnny Nash - Love Ain't Nothing.wav" WAVE
INDEX 01 00:00:00
TRACK 05 AUDIO
TITLE "Secret Love"
PERFORMER "Billy Stewart"
INDEX 00 02:12:30
FILE "05 - Billy Stewart - Secret Love.wav" WAVE
INDEX 01 00:00:00
TRACK 06 AUDIO
TITLE "In The Basement"
PERFORMER "Sugar Pie DeSanto & Etta James"
INDEX 00 03:00:10
FILE "06 - Sugar Pie DeSanto & Etta James - In The Basement.wav" WAVE
INDEX 01 00:00:00
TRACK 07 AUDIO
TITLE "Mellow Fellow"
PERFORMER "Etta James"
INDEX 00 02:21:20
FILE "07 - Etta James - Mellow Fellow.wav" WAVE
INDEX 01 00:00:00
TRACK 08 AUDIO
TITLE "Grits Ain't Groceries (All Around The World)"
PERFORMER "Little Milton"
INDEX 00 02:57:35
FILE "08 - Little Milton - Grits Ain't Groceries (All Around The World).wav" WAVE
INDEX 01 00:00:00
TRACK 09 AUDIO
TITLE "Ain't Love Good, Ain't Love Proud"
PERFORMER "Tony Clarke"
INDEX 00 02:41:33
FILE "09 - Tony Clarke - Ain't Love Good, Ain't Love Proud.wav" WAVE
INDEX 01 00:00:00
TRACK 10 AUDIO
TITLE "Look At Me Now"
PERFORMER "Terry Callier"
INDEX 00 03:15:47
FILE "10 - Terry Callier - Look At Me Now.wav" WAVE
INDEX 01 00:00:00
TRACK 11 AUDIO
TITLE "Peak Of Love"
PERFORMER "Bobby McClure"
INDEX 00 02:39:02
FILE "11 - Bobby McClure - Peak Of Love.wav" WAVE
INDEX 01 00:00:00
TRACK 12 AUDIO
TITLE "Everyday I Have The Blues"
PERFORMER "Billy Stewart"
INDEX 00 02:51:55
FILE "12 - Billy Stewart - Everyday I Have The Blues.wav" WAVE
INDEX 01 00:00:00
TRACK 13 AUDIO
TITLE "Do I Make Myself Clear"
PERFORMER "Sugar Pie DeSanto & Etta James"
INDEX 00 02:53:35
FILE "13 - Sugar Pie DeSanto & Etta James - Do I Make Myself Clear.wav" WAVE
INDEX 01 00:00:00
TRACK 14 AUDIO
TITLE "Seven Day Fool"
PERFORMER "Etta James"
INDEX 00 02:56:05
FILE "14 - Etta James - Seven Day Fool.wav" WAVE
INDEX 01 00:00:00
TRACK 15 AUDIO
TITLE "That'll Get It"
PERFORMER "The Knight Brothers"
INDEX 00 02:53:15
FILE "15 - The Knight Brothers - That'll Get It.wav" WAVE
INDEX 01 00:00:00
TRACK 16 AUDIO
TITLE "I Don't Wanna Fuss"
PERFORMER "Sugar Pie DeSanto"
INDEX 00 02:31:53
FILE "16 - Sugar Pie DeSanto - I Don't Wanna Fuss.wav" WAVE
INDEX 01 00:00:00
TRACK 17 AUDIO
TITLE "Strange Feeling"
PERFORMER "Johnny Nash"
INDEX 00 03:01:62
FILE "17 - Johnny Nash - Strange Feeling.wav" WAVE
INDEX 01 00:00:00
TRACK 18 AUDIO
TITLE "Take Me For A Little While"
PERFORMER "Jackie Ross"
INDEX 00 02:51:42
FILE "18 - Jackie Ross - Take Me For A Little While.wav" WAVE
INDEX 01 00:00:00
TRACK 19 AUDIO
TITLE "Love Is A 5 Letter Word"
PERFORMER "James Phelps"
INDEX 00 02:31:70
FILE "19 - James Phelps - Love Is A 5 Letter Word.wav" WAVE
INDEX 01 00:00:00
TRACK 20 AUDIO
TITLE "Ain't No Big Deal"
PERFORMER "Little Milton"
INDEX 00 03:14:48
FILE "20 - Little Milton - Ain't No Big Deal.wav" WAVE
INDEX 01 00:00:00
Приватный:
Нет (DHT включён)
Размер:
266.79 Мб (279,754,713 байт) » файлов: 30
Участники:
0 раздают, 0 качают (0 участников всего)
Внешние участники:
7 раздают, 2 качают (9 участников всего) [ Обновить ]
Есть вопросы - пишите личное сообщение пользователю M0p94ok.
07:32
69
Нет комментариев. Ваш будет первым!