Поиск

(Soul) [CD] VA - Nite Flite 2 - 1989, FLAC (tracks+.cue), lossless

(Soul) [CD] VA - Nite Flite 2 - 1989, FLAC (tracks+.cue), lossless
Треклист:
Various Artists - Nite Flite 2 Жанр: Soul
Носитель: CD
Год издания: 1989
Издатель (лейбл): CBS
Номер по каталогу: MOOD CD8
Аудиокодек: FLAC (*.flac)
Тип рипа: tracks+.cue
Битрейт аудио: lossless
Продолжительность: 61:39
Rip by JET 1
Наличие сканов в содержимом раздачи: да
Треклист:
01. Roses Are Red (Mac Band) (3:49)
02. Saturday Love (Cherrelle & Alexander O'Neal) (3:49)
03. Any Love (Luther Vandross) (3:56)
04. Come Into My Life (Joyce Simms) (3:39)
05. Just The Way You Like It (The SOS Band) (4:02)
06. Ain't No Sunshine (Bill Withers) (3:27)
07. Can't Stay Away From You (Gloria Estefan) (3:58)
08. Rock Me Tonight (Freddie Jackson) (4:10)
09. Stop To Love (Luther Vandross) (4:22)
10. Wishing On A Star (Rose Royce) (4:03)
11. After The Love Has Gone (Earth Wind And Fire) (3:37)
12. Never Knew Love Like This (Alexander O'Neal) (3:30)
13. Piano In The Dark (Brenda Russell) (3:56)
14. Why Can't We Live Together (Sade) (3:47)
15. Tonight I Celebrate My Love (Roberta Flack & Peabo Bryson) (3:30)
16. Sexual Healing (Marvin Gaye) (4:04)
 
 
Лог создания рипа
Exact Audio Copy V1.0 beta 3 from 29. August 2011
EAC extraction logfile from 19. April 2015, 10:58
Various / Nite Flite 2
Used drive : ATAPI DVD A DH16A6L-C Adapter: 2 ID: 0
Read mode : Secure
Utilize accurate stream : Yes
Defeat audio cache : Yes
Make use of C2 pointers : No
Read offset correction : 6
Overread into Lead-In and Lead-Out : No
Fill up missing offset samples with silence : Yes
Delete leading and trailing silent blocks : No
Null samples used in CRC calculations : Yes
Used interface : Native Win32 interface for Win NT & 2000
Gap handling : Appended to previous track
Used output format : User Defined Encoder
Selected bitrate : 1024 kBit/s
Quality : High
Add ID3 tag : No
Command line compressor : C:\Program Files\FLAC\flac.exe
Additional command line options : -8 -V -T "ARTIST=%artist%" -T "TITLE=%title%" -T "ALBUM=%albumtitle%" -T "DATE=%year%" -T "TRACKNUMBER=%tracknr%" -T "GENRE=%genre%" -T "PERFORMER=%albuminterpret%" -T "COMPOSER=%composer%" %haslyrics%--tag-from-file=LYRICS="%lyricsfile%"%haslyrics% -T "ALBUMARTIST=%albumartist%" -T "DISCNUMBER=%cdnumber%" -T "TOTALDISCS=%totalcds%" -T "TOTALTRACKS=%numtracks%" -T "COMMENT=%comment%" %source% -o %dest%
TOC of the extracted CD
Track | Start | Length | Start sector | End sector
---------------------------------------------------------
1 | 0:00.00 | 3:49.32 | 0 | 17206
2 | 3:49.32 | 3:48.38 | 17207 | 34344
3 | 7:37.70 | 3:56.27 | 34345 | 52071
4 | 11:34.22 | 3:38.40 | 52072 | 68461
5 | 15:12.62 | 4:02.13 | 68462 | 86624
6 | 19:15.00 | 3:27.30 | 86625 | 102179
7 | 22:42.30 | 3:57.67 | 102180 | 120021
8 | 26:40.22 | 4:09.53 | 120022 | 138749
9 | 30:50.00 | 4:22.27 | 138750 | 158426
10 | 35:12.27 | 4:03.15 | 158427 | 176666
11 | 39:15.42 | 3:37.30 | 176667 | 192971
12 | 42:52.72 | 3:29.70 | 192972 | 208716
13 | 46:22.67 | 3:55.55 | 208717 | 226396
14 | 50:18.47 | 3:46.43 | 226397 | 243389
15 | 54:05.15 | 3:29.70 | 243390 | 259134
16 | 57:35.10 | 4:04.20 | 259135 | 277454
Track 1
Filename H:\0\Nite Flite 2 (1989)\01 - Mac Band - Roses Are Red.wav
Pre-gap length 0:00:02.00
Peak level 99.7 %
Extraction speed 2.8 X
Track quality 99.9 %
Test CRC 92013898
Copy CRC 92013898
Accurately ripped (confidence 8) [E58F5E10] (AR v2)
Copy OK
Track 2
Filename H:\0\Nite Flite 2 (1989)\02 - Cherrelle & Alexander O'Neal - Saturday Love.wav
Pre-gap length 0:00:00.50
Peak level 99.7 %
Extraction speed 3.8 X
Track quality 100.0 %
Test CRC 8A45C23C
Copy CRC 8A45C23C
Accurately ripped (confidence 8) [5EACC623] (AR v2)
Copy OK
Track 3
Filename H:\0\Nite Flite 2 (1989)\03 - Luther Vandross - Any Love.wav
Pre-gap length 0:00:00.53
Peak level 99.9 %
Extraction speed 3.3 X
Track quality 99.9 %
Test CRC 2E1B5ADA
Copy CRC 2E1B5ADA
Accurately ripped (confidence 8) [F980AB1A] (AR v2)
Copy OK
Track 4
Filename H:\0\Nite Flite 2 (1989)\04 - Joyce Simms - Come Into My Life.wav
Pre-gap length 0:00:01.72
Peak level 99.8 %
Extraction speed 4.3 X
Track quality 100.0 %
Test CRC 943589A0
Copy CRC 943589A0
Accurately ripped (confidence 8) [BC4D9E37] (AR v2)
Copy OK
Track 5
Filename H:\0\Nite Flite 2 (1989)\05 - The SOS Band - Just The Way You Like It.wav
Pre-gap length 0:00:00.42
Peak level 93.3 %
Extraction speed 4.7 X
Track quality 100.0 %
Test CRC EEB49679
Copy CRC EEB49679
Accurately ripped (confidence 8) [F45DACCA] (AR v2)
Copy OK
Track 6
Filename H:\0\Nite Flite 2 (1989)\06 - Bill Withers - Ain't No Sunshine.wav
Pre-gap length 0:00:00.10
Peak level 99.9 %
Extraction speed 4.8 X
Track quality 100.0 %
Test CRC 84FB6030
Copy CRC 84FB6030
Accurately ripped (confidence 8) [A3E7FEF0] (AR v2)
Copy OK
Track 7
Filename H:\0\Nite Flite 2 (1989)\07 - Gloria Estefan - Can't Stay Away From You.wav
Pre-gap length 0:00:00.45
Peak level 99.8 %
Extraction speed 5.1 X
Track quality 100.0 %
Test CRC 4B40CEAB
Copy CRC 4B40CEAB
Accurately ripped (confidence 8) [66F8F1E0] (AR v2)
Copy OK
Track 8
Filename H:\0\Nite Flite 2 (1989)\08 - Freddie Jackson - Rock Me Tonight.wav
Pre-gap length 0:00:01.12
Peak level 99.8 %
Extraction speed 5.4 X
Track quality 100.0 %
Test CRC 483A1499
Copy CRC 483A1499
Accurately ripped (confidence 8) [62FB05F2] (AR v2)
Copy OK
Track 9
Filename H:\0\Nite Flite 2 (1989)\09 - Luther Vandross - Stop To Love.wav
Pre-gap length 0:00:00.40
Peak level 99.9 %
Extraction speed 5.6 X
Track quality 100.0 %
Test CRC D955D34B
Copy CRC D955D34B
Accurately ripped (confidence 7) [81EB77CA] (AR v2)
Copy OK
Track 10
Filename H:\0\Nite Flite 2 (1989)\10 - Rose Royce - Wishing On A Star.wav
Pre-gap length 0:00:00.52
Peak level 99.8 %
Extraction speed 5.4 X
Track quality 100.0 %
Test CRC 9F9A6068
Copy CRC 9F9A6068
Accurately ripped (confidence 8) [96BA831C] (AR v2)
Copy OK
Track 11
Filename H:\0\Nite Flite 2 (1989)\11 - Earth Wind And Fire - After The Love Has Gone.wav
Pre-gap length 0:00:00.52
Peak level 99.9 %
Extraction speed 6.0 X
Track quality 100.0 %
Test CRC 7438C28D
Copy CRC 7438C28D
Accurately ripped (confidence 8) [82480752] (AR v2)
Copy OK
Track 12
Filename H:\0\Nite Flite 2 (1989)\12 - Alexander O'Neal - Never Knew Love Like This.wav
Pre-gap length 0:00:00.22
Peak level 96.7 %
Extraction speed 6.1 X
Track quality 100.0 %
Test CRC 2344C877
Copy CRC 2344C877
Accurately ripped (confidence 8) [DD3ECA7C] (AR v2)
Copy OK
Track 13
Filename H:\0\Nite Flite 2 (1989)\13 - Brenda Russell - Piano In The Dark.wav
Pre-gap length 0:00:01.35
Peak level 99.9 %
Extraction speed 5.0 X
Track quality 99.9 %
Test CRC 60671647
Copy CRC 60671647
Accurately ripped (confidence 8) [C6E4D751] (AR v2)
Copy OK
Track 14
Filename H:\0\Nite Flite 2 (1989)\14 - Sade - Why Can't We Live Together.wav
Pre-gap length 0:00:01.42
Peak level 99.8 %
Extraction speed 6.4 X
Track quality 100.0 %
Test CRC BC7BB76C
Copy CRC BC7BB76C
Accurately ripped (confidence 8) [B4AD168D] (AR v2)
Copy OK
Track 15
Filename H:\0\Nite Flite 2 (1989)\15 - Roberta Flack & Peabo Bryson - Tonight I Celebrate My Love.wav
Pre-gap length 0:00:00.43
Peak level 89.5 %
Extraction speed 6.5 X
Track quality 100.0 %
Test CRC 866D61C5
Copy CRC 866D61C5
Accurately ripped (confidence 7) [1F4E7FDD] (AR v2)
Copy OK
Track 16
Filename H:\0\Nite Flite 2 (1989)\16 - Marvin Gaye - Sexual Healing.wav
Pre-gap length 0:00:01.10
Peak level 90.3 %
Extraction speed 6.9 X
Track quality 100.0 %
Test CRC DE63AE3A
Copy CRC DE63AE3A
Accurately ripped (confidence 6) [4C1AA2C4] (AR v2)
Copy OK
All tracks accurately ripped
No errors occurred
End of status report
==== Log checksum 80A7359452E1224A55A11537FB82DDDB30BEC802A64FF2DA56C93BD8C0FCCE49 ====
 
Содержание индексной карты (.CUE)
REM GENRE Soul
REM DATE 1989
REM DISCID DA0E7310
REM COMMENT "ExactAudioCopy v1.0b3"
PERFORMER "Various"
TITLE "Nite Flite 2"
FILE "01 - Mac Band - Roses Are Red.wav" WAVE
TRACK 01 AUDIO
TITLE "Roses Are Red"
PERFORMER "Mac Band"
INDEX 01 00:00:00
TRACK 02 AUDIO
TITLE "Saturday Love"
PERFORMER "Cherrelle & Alexander O'Neal"
INDEX 00 03:48:57
FILE "02 - Cherrelle & Alexander O'Neal - Saturday Love.wav" WAVE
INDEX 01 00:00:00
TRACK 03 AUDIO
TITLE "Any Love"
PERFORMER "Luther Vandross"
INDEX 00 03:47:60
FILE "03 - Luther Vandross - Any Love.wav" WAVE
INDEX 01 00:00:00
TRACK 04 AUDIO
TITLE "Come Into My Life"
PERFORMER "Joyce Simms"
INDEX 00 03:54:30
FILE "04 - Joyce Simms - Come Into My Life.wav" WAVE
INDEX 01 00:00:00
TRACK 05 AUDIO
TITLE "Just The Way You Like It"
PERFORMER "The SOS Band"
INDEX 00 03:37:73
FILE "05 - The SOS Band - Just The Way You Like It.wav" WAVE
INDEX 01 00:00:00
TRACK 06 AUDIO
TITLE "Ain't No Sunshine"
PERFORMER "Bill Withers"
INDEX 00 04:02:03
FILE "06 - Bill Withers - Ain't No Sunshine.wav" WAVE
INDEX 01 00:00:00
TRACK 07 AUDIO
TITLE "Can't Stay Away From You"
PERFORMER "Gloria Estefan"
INDEX 00 03:26:60
FILE "07 - Gloria Estefan - Can't Stay Away From You.wav" WAVE
INDEX 01 00:00:00
TRACK 08 AUDIO
TITLE "Rock Me Tonight"
PERFORMER "Freddie Jackson"
INDEX 00 03:56:55
FILE "08 - Freddie Jackson - Rock Me Tonight.wav" WAVE
INDEX 01 00:00:00
TRACK 09 AUDIO
TITLE "Stop To Love"
PERFORMER "Luther Vandross"
INDEX 00 04:09:13
FILE "09 - Luther Vandross - Stop To Love.wav" WAVE
INDEX 01 00:00:00
TRACK 10 AUDIO
TITLE "Wishing On A Star"
PERFORMER "Rose Royce"
INDEX 00 04:21:50
FILE "10 - Rose Royce - Wishing On A Star.wav" WAVE
INDEX 01 00:00:00
TRACK 11 AUDIO
TITLE "After The Love Has Gone"
PERFORMER "Earth Wind And Fire"
INDEX 00 04:02:38
FILE "11 - Earth Wind And Fire - After The Love Has Gone.wav" WAVE
INDEX 01 00:00:00
TRACK 12 AUDIO
TITLE "Never Knew Love Like This"
PERFORMER "Alexander O'Neal"
INDEX 00 03:37:08
FILE "12 - Alexander O'Neal - Never Knew Love Like This.wav" WAVE
INDEX 01 00:00:00
TRACK 13 AUDIO
TITLE "Piano In The Dark"
PERFORMER "Brenda Russell"
INDEX 00 03:28:35
FILE "13 - Brenda Russell - Piano In The Dark.wav" WAVE
INDEX 01 00:00:00
TRACK 14 AUDIO
TITLE "Why Can't We Live Together"
PERFORMER "Sade"
INDEX 00 03:54:13
FILE "14 - Sade - Why Can't We Live Together.wav" WAVE
INDEX 01 00:00:00
TRACK 15 AUDIO
TITLE "Tonight I Celebrate My Love"
PERFORMER "Roberta Flack & Peabo Bryson"
INDEX 00 03:46:00
FILE "15 - Roberta Flack & Peabo Bryson - Tonight I Celebrate My Love.wav" WAVE
INDEX 01 00:00:00
TRACK 16 AUDIO
TITLE "Sexual Healing"
PERFORMER "Marvin Gaye"
INDEX 00 03:28:60
FILE "16 - Marvin Gaye - Sexual Healing.wav" WAVE
INDEX 01 00:00:00
Приватный:
Нет (DHT включён)
Размер:
414.57 Мб (434,708,868 байт) » файлов: 24
Участники:
0 раздают, 0 качают (0 участников всего)
Внешние участники:
2 раздают, 1 качают (3 участников всего) [ Обновить ]
Есть вопросы - пишите личное сообщение пользователю M0p94ok.
05:32
57
Нет комментариев. Ваш будет первым!