Поиск

(Soul) [CD] Ron Cartier - Real Love, Real Life - 1994, FLAC (tracks+.cue), lossless

(Soul) [CD] Ron Cartier - Real Love, Real Life - 1994, FLAC (tracks+.cue), lossless
Треклист:
Ron Cartier - Real Love, Real Life
Жанр: Soul
Носитель: CD
Год издания: 1994
Издатель (лейбл): AM Tracks Records
Номер по каталогу: AMCD 001
Аудиокодек: FLAC (*.flac)
Тип рипа: tracks+.cue
Битрейт аудио: lossless
Продолжительность: 50:52
Rip by JET 1
Наличие сканов в содержимом раздачи: да
Треклист:
01. I'm Just Waiting On The Number (4:55)
02. You're Sweet, You're Fine, You're Everything (5:06)
03. How Do You Like Your Loving (4:52)
04. The Neighborhood (4:16)
05. You Me And Love (4:32)
06. This Love Is True (4:07)
07. Cry (4:22)
08. Babies Making Babies (4:34)
09. Positive Image (4:25)
10. Spare A Minute (5:08)
11. We're The Best There Is (4:33)
 

 
 
Лог создания рипа
Exact Audio Copy V1.0 beta 3 from 29. August 2011
EAC extraction logfile from 31. October 2015, 11:00
Ron Cartier / Real Love, Real Life
Used drive : GENERIC CDRCB05 Adapter: 4 ID: 0
Read mode : Secure
Utilize accurate stream : Yes
Defeat audio cache : Yes
Make use of C2 pointers : No
Read offset correction : 102
Overread into Lead-In and Lead-Out : No
Fill up missing offset samples with silence : Yes
Delete leading and trailing silent blocks : No
Null samples used in CRC calculations : Yes
Used interface : Native Win32 interface for Win NT & 2000
Gap handling : Appended to previous track
Used output format : User Defined Encoder
Selected bitrate : 1024 kBit/s
Quality : High
Add ID3 tag : No
Command line compressor : C:\Program Files\FLAC\flac.exe
Additional command line options : -8 -V -T "ARTIST=%artist%" -T "TITLE=%title%" -T "ALBUM=%albumtitle%" -T "DATE=%year%" -T "TRACKNUMBER=%tracknr%" -T "GENRE=%genre%" -T "PERFORMER=%albuminterpret%" -T "COMPOSER=%composer%" %haslyrics%--tag-from-file=LYRICS="%lyricsfile%"%haslyrics% -T "ALBUMARTIST=%albumartist%" -T "DISCNUMBER=%cdnumber%" -T "TOTALDISCS=%totalcds%" -T "TOTALTRACKS=%numtracks%" -T "COMMENT=%comment%" %source% -o %dest%
TOC of the extracted CD
Track | Start | Length | Start sector | End sector
---------------------------------------------------------
1 | 0:00.00 | 4:55.00 | 0 | 22124
2 | 4:55.00 | 5:06.20 | 22125 | 45094
3 | 10:01.20 | 4:52.25 | 45095 | 67019
4 | 14:53.45 | 4:16.05 | 67020 | 86224
5 | 19:09.50 | 4:32.22 | 86225 | 106646
6 | 23:41.72 | 4:07.13 | 106647 | 125184
7 | 27:49.10 | 4:21.40 | 125185 | 144799
8 | 32:10.50 | 4:34.37 | 144800 | 165386
9 | 36:45.12 | 4:25.08 | 165387 | 185269
10 | 41:10.20 | 5:08.00 | 185270 | 208369
11 | 46:18.20 | 4:33.37 | 208370 | 228881
Track 1
Filename G:\POSTS\Ron Cartier - Real Love, Real Life (1994)\01 - I'm Just Waiting On The Number.wav
Pre-gap length 0:00:02.00
Peak level 82.0 %
Extraction speed 2.4 X
Track quality 100.0 %
Test CRC 646B2F5E
Copy CRC 646B2F5E
Track not present in AccurateRip database
Copy OK
Track 2
Filename G:\POSTS\Ron Cartier - Real Love, Real Life (1994)\02 - You're Sweet, You're Fine, You're Everything.wav
Pre-gap length 0:00:02.03
Peak level 71.0 %
Extraction speed 2.7 X
Track quality 100.0 %
Test CRC 851A75A5
Copy CRC 851A75A5
Track not present in AccurateRip database
Copy OK
Track 3
Filename G:\POSTS\Ron Cartier - Real Love, Real Life (1994)\03 - How Do You Like Your Loving.wav
Pre-gap length 0:00:02.70
Peak level 87.4 %
Extraction speed 3.0 X
Track quality 100.0 %
Test CRC 2E2E12E8
Copy CRC 2E2E12E8
Track not present in AccurateRip database
Copy OK
Track 4
Filename G:\POSTS\Ron Cartier - Real Love, Real Life (1994)\04 - The Neighborhood.wav
Pre-gap length 0:00:03.33
Peak level 83.9 %
Extraction speed 3.2 X
Track quality 100.0 %
Test CRC 003C7D53
Copy CRC 003C7D53
Track not present in AccurateRip database
Copy OK
Track 5
Filename G:\POSTS\Ron Cartier - Real Love, Real Life (1994)\05 - You Me And Love.wav
Pre-gap length 0:00:02.63
Peak level 100.0 %
Extraction speed 3.4 X
Track quality 100.0 %
Test CRC F1AAA900
Copy CRC F1AAA900
Track not present in AccurateRip database
Copy OK
Track 6
Filename G:\POSTS\Ron Cartier - Real Love, Real Life (1994)\06 - This Love Is True.wav
Pre-gap length 0:00:02.72
Peak level 97.1 %
Extraction speed 3.5 X
Track quality 100.0 %
Test CRC 09426688
Copy CRC 09426688
Track not present in AccurateRip database
Copy OK
Track 7
Filename G:\POSTS\Ron Cartier - Real Love, Real Life (1994)\07 - Cry.wav
Pre-gap length 0:00:02.00
Peak level 87.4 %
Extraction speed 3.7 X
Track quality 100.0 %
Test CRC B5772084
Copy CRC B5772084
Track not present in AccurateRip database
Copy OK
Track 8
Filename G:\POSTS\Ron Cartier - Real Love, Real Life (1994)\08 - Babies Making Babies.wav
Peak level 100.0 %
Extraction speed 3.9 X
Track quality 100.0 %
Test CRC 41B4D53D
Copy CRC 41B4D53D
Track not present in AccurateRip database
Copy OK
Track 9
Filename G:\POSTS\Ron Cartier - Real Love, Real Life (1994)\09 - Positive Image.wav
Pre-gap length 0:00:01.05
Peak level 87.8 %
Extraction speed 4.1 X
Track quality 100.0 %
Test CRC AD6E5C4E
Copy CRC AD6E5C4E
Track not present in AccurateRip database
Copy OK
Track 10
Filename G:\POSTS\Ron Cartier - Real Love, Real Life (1994)\10 - Spare A Minute.wav
Peak level 74.6 %
Extraction speed 4.3 X
Track quality 100.0 %
Test CRC 3E7F2F62
Copy CRC 3E7F2F62
Track not present in AccurateRip database
Copy OK
Track 11
Filename G:\POSTS\Ron Cartier - Real Love, Real Life (1994)\11 - We're The Best There Is.wav
Pre-gap length 0:00:02.30
Peak level 73.0 %
Extraction speed 4.5 X
Track quality 100.0 %
Test CRC F6B23594
Copy CRC F6B23594
Track not present in AccurateRip database
Copy OK
None of the tracks are present in the AccurateRip database
No errors occurred
End of status report
==== Log checksum 7DB44FD57B9A343FB22ED0CDD2659D8D88044C62C29F11A287DD63BD6392BFA9 ====
 
Содержание индексной карты (.CUE)
REM GENRE Soul
REM DATE 1994
REM DISCID 8E0BEB0B
REM COMMENT "ExactAudioCopy v1.0b3"
PERFORMER "Ron Cartier"
TITLE "Real Love, Real Life"
FILE "01 - I'm Just Waiting On The Number.wav" WAVE
TRACK 01 AUDIO
TITLE "I'm Just Waiting On The Number"
PERFORMER "Ron Cartier"
INDEX 01 00:00:00
TRACK 02 AUDIO
TITLE "You're Sweet, You're Fine, You're Everything"
PERFORMER "Ron Cartier"
INDEX 00 04:52:72
FILE "02 - You're Sweet, You're Fine, You're Everything.wav" WAVE
INDEX 01 00:00:00
TRACK 03 AUDIO
TITLE "How Do You Like Your Loving"
PERFORMER "Ron Cartier"
INDEX 00 05:03:25
FILE "03 - How Do You Like Your Loving.wav" WAVE
INDEX 01 00:00:00
TRACK 04 AUDIO
TITLE "The Neighborhood"
PERFORMER "Ron Cartier"
INDEX 00 04:48:67
FILE "04 - The Neighborhood.wav" WAVE
INDEX 01 00:00:00
TRACK 05 AUDIO
TITLE "You Me And Love"
PERFORMER "Ron Cartier"
INDEX 00 04:13:17
FILE "05 - You Me And Love.wav" WAVE
INDEX 01 00:00:00
TRACK 06 AUDIO
TITLE "This Love Is True"
PERFORMER "Ron Cartier"
INDEX 00 04:29:25
FILE "06 - This Love Is True.wav" WAVE
INDEX 01 00:00:00
TRACK 07 AUDIO
TITLE "Cry"
PERFORMER "Ron Cartier"
INDEX 00 04:05:13
FILE "07 - Cry.wav" WAVE
INDEX 01 00:00:00
FILE "08 - Babies Making Babies.wav" WAVE
TRACK 08 AUDIO
TITLE "Babies Making Babies"
PERFORMER "Ron Cartier"
INDEX 01 00:00:00
TRACK 09 AUDIO
TITLE "Positive Image"
PERFORMER "Ron Cartier"
INDEX 00 04:33:32
FILE "09 - Positive Image.wav" WAVE
INDEX 01 00:00:00
FILE "10 - Spare A Minute.wav" WAVE
TRACK 10 AUDIO
TITLE "Spare A Minute"
PERFORMER "Ron Cartier"
INDEX 01 00:00:00
TRACK 11 AUDIO
TITLE "We're The Best There Is"
PERFORMER "Ron Cartier"
INDEX 00 05:05:45
FILE "11 - We're The Best There Is.wav" WAVE
INDEX 01 00:00:00
 
Об альбоме (сборнике)
One and only release from Ron Cartier, Excellent soul album, super rare and hard to find album.
Приватный:
Нет (DHT включён)
Размер:
335.18 Мб (351,465,148 байт) » файлов: 20
Участники:
0 раздают, 0 качают (0 участников всего)
Внешние участники:
1 раздают, 0 качают (1 участников всего) [ Обновить ]
Есть вопросы - пишите личное сообщение пользователю M0p94ok.
08:42
62
Нет комментариев. Ваш будет первым!