Поиск

(Soul) [CD] Marvin Gaye - 18 Greatest Hits - 1988, FLAC (tracks+.cue), lossless

(Soul) [CD] Marvin Gaye - 18 Greatest Hits - 1988, FLAC (tracks+.cue), lossless
Треклист:
Marvin Gaye / 18 Greatest Hits
Жанр: Soul
Носитель: CD
Год издания: 1988
Издатель (лейбл): Motown
Номер по каталогу: WD72645
Аудиокодек: FLAC (*.flac)
Тип рипа: tracks+.cue
Битрейт аудио: lossless
Продолжительность: 57:17
Источник (релизер): xbtmusic.org
Наличие сканов в содержимом раздачи: да
Треклист:
01. Marvin Gaye - I Heard It Through the Grapevine (3:14)
02. Marvin Gaye - Let's Get It On (4:03)
03. Marvin Gaye - Too Busy Thinking About my Baby (2:57)
04. Marvin Gaye - How Sweet It Is (To be Loved by You) (2:55)
05. Marvin Gaye - You're All I Need to Get By (with Tammi Terrell) (2:48)
06. Marvin Gaye - Got to Give It Up (Part 1) (4:11)
07. Marvin Gaye - You Are Everything (with Diana Ross) (2:53)
08. Marvin Gaye - Can I Get a Witness (2:49)
09. Marvin Gaye - I'll be Doggone (2:45)
10. Marvin Gaye - What's Going On (3:58)
11. Marvin Gaye - Abraham, Martin and John (4:20)
12. Marvin Gaye - It Takes Two (with Kim Weston) (2:59)
13. Marvin Gaye - Stop, Look, Listen (To Your Heart) (with Diana Ross) (2:54)
14. Marvin Gaye - Chained (2:40)
15. Marvin Gaye - Trouble Man (3:47)
16. Marvin Gaye - You Ain't Livin' Till You're Lovin' (with Tammi Terrell) (2:47)
17. Marvin Gaye - The Onion Song (with Tammi Terrell) (2:59)
18. Marvin Gaye - Wherever I Lay my Hat (That's my Home) (2:17)
 
Лог создания рипа
Exact Audio Copy V1.0 beta 4 from 7. December 2014
EAC extraction logfile from 15. May 2015, 14:12
Marvin Gaye / 18 Greatest Hits
Used drive : TSSTcorpCDDVDW SN-208FB Adapter: 1 ID: 0
Read mode : Secure
Utilize accurate stream : Yes
Defeat audio cache : Yes
Make use of C2 pointers : No
Read offset correction : 6
Overread into Lead-In and Lead-Out : No
Fill up missing offset samples with silence : Yes
Delete leading and trailing silent blocks : No
Null samples used in CRC calculations : Yes
Used interface : Native Win32 interface for Win NT & 2000
Gap handling : Appended to previous track
Used output format : User Defined Encoder
Selected bitrate : 1024 kBit/s
Quality : High
Add ID3 tag : No
Command line compressor : C:\Program Files (x86)\Kodeki za Glasbo\FLAC\flac.exe
Additional command line options : -8 -V -T "ARTIST=%artist%" -T "TITLE=%title%" -T "ALBUM=%albumtitle%" -T "DATE=%year%" -T "TRACKNUMBER=%tracknr%" -T "TOTALTRACKS=%numtracks%" -T "GENRE=%genre%" -T "ALBUMARTIST=%albumartist%" -T "ALBUM ARTIST=%albumartist%" -T "COMMENT=EAC Secure Mode, Test & Copy, AccurateRip, FLAC -8" %source%
TOC of the extracted CD
Track | Start | Length | Start sector | End sector
---------------------------------------------------------
1 | 0:00.00 | 3:14.20 | 0 | 14569
2 | 3:14.20 | 4:02.72 | 14570 | 32791
3 | 7:17.17 | 2:56.38 | 32792 | 46029
4 | 10:13.55 | 2:55.00 | 46030 | 59154
5 | 13:08.55 | 2:48.35 | 59155 | 71789
6 | 15:57.15 | 4:11.30 | 71790 | 90644
7 | 20:08.45 | 2:52.67 | 90645 | 103611
8 | 23:01.37 | 2:49.20 | 103612 | 116306
9 | 25:50.57 | 2:44.70 | 116307 | 128676
10 | 28:35.52 | 3:57.73 | 128677 | 146524
11 | 32:33.50 | 4:19.45 | 146525 | 165994
12 | 36:53.20 | 2:59.35 | 165995 | 179454
13 | 39:52.55 | 2:54.12 | 179455 | 192516
14 | 42:46.67 | 2:39.63 | 192517 | 204504
15 | 45:26.55 | 3:46.55 | 204505 | 221509
16 | 49:13.35 | 2:47.27 | 221510 | 234061
17 | 52:00.62 | 2:59.20 | 234062 | 247506
18 | 55:00.07 | 2:16.40 | 247507 | 257746
Track 1
Filename M:\2. my rip in preparation\3 - in treatment\Marvin Gaye - 18 Greatest Hits (1988) [FLAC] {Motown WD72645}\01 - I Heard It Through the Grapevine.wav
Pre-gap length 0:00:02.00
Peak level 75.8 %
Extraction speed 1.1 X
Track quality 100.0 %
Test CRC 8E6A3427
Copy CRC 8E6A3427
Accurately ripped (confidence 5) [2324D796] (AR v2)
Copy OK
Track 2
Filename M:\2. my rip in preparation\3 - in treatment\Marvin Gaye - 18 Greatest Hits (1988) [FLAC] {Motown WD72645}\02 - Let's Get It On.wav
Pre-gap length 0:00:00.53
Peak level 100.0 %
Extraction speed 1.2 X
Track quality 100.0 %
Test CRC 1268CE9B
Copy CRC 1268CE9B
Accurately ripped (confidence 5) [F2189E1E] (AR v2)
Copy OK
Track 3
Filename M:\2. my rip in preparation\3 - in treatment\Marvin Gaye - 18 Greatest Hits (1988) [FLAC] {Motown WD72645}\03 - Too Busy Thinking About my Baby.wav
Pre-gap length 0:00:00.62
Peak level 86.6 %
Extraction speed 1.2 X
Track quality 100.0 %
Test CRC F45FCDDC
Copy CRC F45FCDDC
Accurately ripped (confidence 5) [9922003E] (AR v2)
Copy OK
Track 4
Filename M:\2. my rip in preparation\3 - in treatment\Marvin Gaye - 18 Greatest Hits (1988) [FLAC] {Motown WD72645}\04 - How Sweet It Is (To be Loved by You).wav
Pre-gap length 0:00:01.86
Peak level 64.8 %
Extraction speed 1.3 X
Track quality 100.0 %
Test CRC 215F0C7A
Copy CRC 215F0C7A
Accurately ripped (confidence 5) [A8B79E76] (AR v2)
Copy OK
Track 5
Filename M:\2. my rip in preparation\3 - in treatment\Marvin Gaye - 18 Greatest Hits (1988) [FLAC] {Motown WD72645}\05 - You're All I Need to Get By (with Tammi Terrell).wav
Pre-gap length 0:00:00.40
Peak level 87.6 %
Extraction speed 1.4 X
Track quality 100.0 %
Test CRC 29DB7E13
Copy CRC 29DB7E13
Accurately ripped (confidence 5) [4B1E3654] (AR v2)
Copy OK
Track 6
Filename M:\2. my rip in preparation\3 - in treatment\Marvin Gaye - 18 Greatest Hits (1988) [FLAC] {Motown WD72645}\06 - Got to Give It Up (Part 1).wav
Pre-gap length 0:00:00.84
Peak level 82.8 %
Extraction speed 1.6 X
Track quality 100.0 %
Test CRC D44D7AD4
Copy CRC D44D7AD4
Accurately ripped (confidence 5) [86114C67] (AR v2)
Copy OK
Track 7
Filename M:\2. my rip in preparation\3 - in treatment\Marvin Gaye - 18 Greatest Hits (1988) [FLAC] {Motown WD72645}\07 - You Are Everything (with Diana Ross).wav
Pre-gap length 0:00:00.70
Peak level 86.8 %
Extraction speed 1.5 X
Track quality 100.0 %
Test CRC DC11EF73
Copy CRC DC11EF73
Accurately ripped (confidence 5) [17D562EB] (AR v2)
Copy OK
Track 8
Filename M:\2. my rip in preparation\3 - in treatment\Marvin Gaye - 18 Greatest Hits (1988) [FLAC] {Motown WD72645}\08 - Can I Get a Witness.wav
Pre-gap length 0:00:00.13
Peak level 95.3 %
Extraction speed 1.6 X
Track quality 100.0 %
Test CRC 238E4EEC
Copy CRC 238E4EEC
Accurately ripped (confidence 5) [492CFC72] (AR v2)
Copy OK
Track 9
Filename M:\2. my rip in preparation\3 - in treatment\Marvin Gaye - 18 Greatest Hits (1988) [FLAC] {Motown WD72645}\09 - I'll be Doggone.wav
Pre-gap length 0:00:01.20
Peak level 96.1 %
Extraction speed 1.6 X
Track quality 100.0 %
Test CRC 3DF2A68E
Copy CRC 3DF2A68E
Accurately ripped (confidence 5) [37EB8C81] (AR v2)
Copy OK
Track 10
Filename M:\2. my rip in preparation\3 - in treatment\Marvin Gaye - 18 Greatest Hits (1988) [FLAC] {Motown WD72645}\10 - What's Going On.wav
Pre-gap length 0:00:00.16
Peak level 95.9 %
Extraction speed 1.8 X
Track quality 100.0 %
Test CRC D2CA1CE7
Copy CRC D2CA1CE7
Accurately ripped (confidence 5) [3D2BC183] (AR v2)
Copy OK
Track 11
Filename M:\2. my rip in preparation\3 - in treatment\Marvin Gaye - 18 Greatest Hits (1988) [FLAC] {Motown WD72645}\11 - Abraham, Martin and John.wav
Pre-gap length 0:00:00.44
Peak level 100.0 %
Extraction speed 1.7 X
Track quality 99.9 %
Test CRC 00755ACB
Copy CRC 00755ACB
Accurately ripped (confidence 5) [72C4A068] (AR v2)
Copy OK
Track 12
Filename M:\2. my rip in preparation\3 - in treatment\Marvin Gaye - 18 Greatest Hits (1988) [FLAC] {Motown WD72645}\12 - It Takes Two (with Kim Weston).wav
Pre-gap length 0:00:01.73
Peak level 87.3 %
Extraction speed 1.9 X
Track quality 100.0 %
Test CRC 6C5C07E1
Copy CRC 6C5C07E1
Accurately ripped (confidence 5) [429AD002] (AR v2)
Copy OK
Track 13
Filename M:\2. my rip in preparation\3 - in treatment\Marvin Gaye - 18 Greatest Hits (1988) [FLAC] {Motown WD72645}\13 - Stop, Look, Listen (To Your Heart) (with Diana Ross).wav
Pre-gap length 0:00:01.24
Peak level 85.8 %
Extraction speed 1.9 X
Track quality 100.0 %
Test CRC B1E60FDF
Copy CRC B1E60FDF
Accurately ripped (confidence 5) [A95FD092] (AR v2)
Copy OK
Track 14
Filename M:\2. my rip in preparation\3 - in treatment\Marvin Gaye - 18 Greatest Hits (1988) [FLAC] {Motown WD72645}\14 - Chained.wav
Pre-gap length 0:00:01.02
Peak level 96.6 %
Extraction speed 1.9 X
Track quality 100.0 %
Test CRC AE789865
Copy CRC AE789865
Accurately ripped (confidence 5) [DE5C7D6B] (AR v2)
Copy OK
Track 15
Filename M:\2. my rip in preparation\3 - in treatment\Marvin Gaye - 18 Greatest Hits (1988) [FLAC] {Motown WD72645}\15 - Trouble Man.wav
Pre-gap length 0:00:01.40
Peak level 64.7 %
Extraction speed 1.8 X
Track quality 99.9 %
Test CRC F0B1B1A7
Copy CRC F0B1B1A7
Accurately ripped (confidence 5) [C8C0A420] (AR v2)
Copy OK
Track 16
Filename M:\2. my rip in preparation\3 - in treatment\Marvin Gaye - 18 Greatest Hits (1988) [FLAC] {Motown WD72645}\16 - You Ain't Livin' Till You're Lovin' (with Tammi Terrell).wav
Pre-gap length 0:00:00.37
Peak level 100.0 %
Extraction speed 2.0 X
Track quality 100.0 %
Test CRC DB1C4F1E
Copy CRC DB1C4F1E
Accurately ripped (confidence 5) [BEA88AC7] (AR v2)
Copy OK
Track 17
Filename M:\2. my rip in preparation\3 - in treatment\Marvin Gaye - 18 Greatest Hits (1988) [FLAC] {Motown WD72645}\17 - The Onion Song (with Tammi Terrell).wav
Pre-gap length 0:00:00.46
Peak level 78.5 %
Extraction speed 1.8 X
Track quality 99.9 %
Test CRC 69117F9D
Copy CRC 69117F9D
Accurately ripped (confidence 5) [E1166C48] (AR v2)
Copy OK
Track 18
Filename M:\2. my rip in preparation\3 - in treatment\Marvin Gaye - 18 Greatest Hits (1988) [FLAC] {Motown WD72645}\18 - Wherever I Lay my Hat (That's my Home).wav
Pre-gap length 0:00:01.16
Peak level 87.6 %
Extraction speed 2.0 X
Track quality 100.0 %
Test CRC 5C6BFFAD
Copy CRC 5C6BFFAD
Accurately ripped (confidence 5) [FAE2E8F6] (AR v2)
Copy OK
All tracks accurately ripped
No errors occurred
End of status report
---- CUETools DB Plugin V2.1.4
[CTDB TOCID: 1ojtuEZehpKp9nTImqYNmQkt52c-] found
Submit result: 1ojtuEZehpKp9nTImqYNmQkt52c- has been confirmed
Track | CTDB Status
1 | (18/19) Accurately ripped
2 | (18/19) Accurately ripped
3 | (18/19) Accurately ripped
4 | (18/19) Accurately ripped
5 | (18/19) Accurately ripped
6 | (18/19) Accurately ripped
7 | (18/19) Accurately ripped
8 | (18/19) Accurately ripped
9 | (18/19) Accurately ripped
10 | (18/19) Accurately ripped
11 | (18/19) Accurately ripped
12 | (17/19) Accurately ripped
13 | (18/19) Accurately ripped
14 | (18/19) Accurately ripped
15 | (18/19) Accurately ripped
16 | (18/19) Accurately ripped
17 | (18/19) Accurately ripped
18 | (17/19) Accurately ripped
==== Log checksum B4B25F0D59BC339F47F96F0ADBE47C8C40A029A3FF065717868083BA84393FAD ====
 
Содержание индексной карты (.CUE)
REM GENRE Funk
REM DATE 1988
REM DISCID 030D6C12
REM COMMENT "ExactAudioCopy v1.0b4"
PERFORMER "Marvin Gaye"
TITLE "18 Greatest Hits"
FILE "01 - I Heard It Through the Grapevine.wav" WAVE
TRACK 01 AUDIO
TITLE "I Heard It Through the Grapevine"
PERFORMER "Marvin Gaye"
INDEX 01 00:00:00
TRACK 02 AUDIO
TITLE "Let's Get It On"
PERFORMER "Marvin Gaye"
INDEX 00 03:13:55
FILE "02 - Let's Get It On.wav" WAVE
INDEX 01 00:00:00
TRACK 03 AUDIO
TITLE "Too Busy Thinking About my Baby"
PERFORMER "Marvin Gaye"
INDEX 00 04:02:25
FILE "03 - Too Busy Thinking About my Baby.wav" WAVE
INDEX 01 00:00:00
TRACK 04 AUDIO
TITLE "How Sweet It Is (To be Loved by You)"
PERFORMER "Marvin Gaye"
INDEX 00 02:54:48
FILE "04 - How Sweet It Is (To be Loved by You).wav" WAVE
INDEX 01 00:00:00
TRACK 05 AUDIO
TITLE "You're All I Need to Get By (with Tammi Terrell)"
PERFORMER "Marvin Gaye"
INDEX 00 02:54:45
FILE "05 - You're All I Need to Get By (with Tammi Terrell).wav" WAVE
INDEX 01 00:00:00
TRACK 06 AUDIO
TITLE "Got to Give It Up (Part 1)"
PERFORMER "Marvin Gaye"
INDEX 00 02:47:47
FILE "06 - Got to Give It Up (Part 1).wav" WAVE
INDEX 01 00:00:00
TRACK 07 AUDIO
TITLE "You Are Everything (with Diana Ross)"
PERFORMER "Marvin Gaye"
INDEX 00 04:10:52
FILE "07 - You Are Everything (with Diana Ross).wav" WAVE
INDEX 01 00:00:00
TRACK 08 AUDIO
TITLE "Can I Get a Witness"
PERFORMER "Marvin Gaye"
INDEX 00 02:52:57
FILE "08 - Can I Get a Witness.wav" WAVE
INDEX 01 00:00:00
TRACK 09 AUDIO
TITLE "I'll be Doggone"
PERFORMER "Marvin Gaye"
INDEX 00 02:48:05
FILE "09 - I'll be Doggone.wav" WAVE
INDEX 01 00:00:00
TRACK 10 AUDIO
TITLE "What's Going On"
PERFORMER "Marvin Gaye"
INDEX 00 02:44:58
FILE "10 - What's Going On.wav" WAVE
INDEX 01 00:00:00
TRACK 11 AUDIO
TITLE "Abraham, Martin and John"
PERFORMER "Marvin Gaye"
INDEX 00 03:57:40
FILE "11 - Abraham, Martin and John.wav" WAVE
INDEX 01 00:00:00
TRACK 12 AUDIO
TITLE "It Takes Two (with Kim Weston)"
PERFORMER "Marvin Gaye"
INDEX 00 04:17:65
FILE "12 - It Takes Two (with Kim Weston).wav" WAVE
INDEX 01 00:00:00
TRACK 13 AUDIO
TITLE "Stop, Look, Listen (To Your Heart) (with Diana Ross)"
PERFORMER "Marvin Gaye"
INDEX 00 02:58:17
FILE "13 - Stop, Look, Listen (To Your Heart) (with Diana Ross).wav" WAVE
INDEX 01 00:00:00
TRACK 14 AUDIO
TITLE "Chained"
PERFORMER "Marvin Gaye"
INDEX 00 02:53:10
FILE "14 - Chained.wav" WAVE
INDEX 01 00:00:00
TRACK 15 AUDIO
TITLE "Trouble Man"
PERFORMER "Marvin Gaye"
INDEX 00 02:38:33
FILE "15 - Trouble Man.wav" WAVE
INDEX 01 00:00:00
TRACK 16 AUDIO
TITLE "You Ain't Livin' Till You're Lovin' (with Tammi Terrell)"
PERFORMER "Marvin Gaye"
INDEX 00 03:46:27
FILE "16 - You Ain't Livin' Till You're Lovin' (with Tammi Terrell).wav" WAVE
INDEX 01 00:00:00
TRACK 17 AUDIO
TITLE "The Onion Song (with Tammi Terrell)"
PERFORMER "Marvin Gaye"
INDEX 00 02:46:67
FILE "17 - The Onion Song (with Tammi Terrell).wav" WAVE
INDEX 01 00:00:00
TRACK 18 AUDIO
TITLE "Wherever I Lay my Hat (That's my Home)"
PERFORMER "Marvin Gaye"
INDEX 00 02:58:08
FILE "18 - Wherever I Lay my Hat (That's my Home).wav" WAVE
INDEX 01 00:00:00
Приватный:
Нет (DHT включён)
Размер:
348.16 Мб (365,067,432 байт) » файлов: 27
Участники:
0 раздают, 0 качают (0 участников всего)
Внешние участники:
12 раздают, 4 качают (16 участников всего) [ Обновить ]
Есть вопросы - пишите личное сообщение пользователю M0p94ok.
12:04
56
Нет комментариев. Ваш будет первым!