Вы используете незарегистрированную версию компонента "Вкладки"!

Поиск

(Сontemporary jazz, Сhamber, Experimental) Nikola Kodjabashia & Foltin feat. Goce Stevkovski - Penelope X - 2011, FLAC (tracks+.cue) lossless

Треклист:
Nikola Kodjabashia & Foltin feat. Goce Stevkovski
PENELOPE X
Жанр: Сontemporary jazz, Сhamber, Experimental
Год издания диска: 2011
Издатель (лейбл): Litium
Страна: Filter Records (USA)
Аудио кодек: FLAC (*.flac)
Тип рипа: tracks+.cue
Битрейт аудио: lossless
Продолжительность: 35:15
Источник (релизер): другой трекер (valechek82)
Наличие сканов в содержимом раздачи: нет
Треклист:
1. Kouros - 4.05
2. Penelope X - 3.31
3. To Whom Do You Belong Now? - 5.13
4. Na Na (Sirens) (feat. Rebeka) - 2.15
5. Cinderella Man - 4.26
6. True Blue Eyes (Calypso) - 4.27
7. Dawn of the Rose Red Fingers (feat. Rose Betts and Angelina Kodjabashia) - 5.00
8. The Pillars of Hercules (Homecoming) - 6.00
Состав:
Nikola Kodjabashia: keyboards and virtual instruments
Branislav Nikolov: lead vocals, mandolin
Pece Trajkovski—Brada: accordion
Goce Jovanovski: bass
Marjan Stanic: percussions
Pece Nikolovski: clarinet, blues harp
Goce Stevkovski: drums
 
Доп. информация
There is a motto which says that if you don't know to which port you are sailing then no wind will be favorable. It's the same with collaborations. Following Ovaa Transplantirana Mashina za Chukanje (Self Produced, 2008) the latest installment of the music of Foltin finds the band enjoying the company of good friends. For this journey, it has employed the services of Nikola Kodjabashia, producer, composer and electronic wizard, as well as Goce Stevkovski, a master drummer. The collaboration of these merry men encourages inspired performances from the participants, soul brothers who have set themselves the seemingly impossible task of imprinting their souls on an album.
Penelope X is full of charms, where the marriage of musical minds encompasses the best of both of their recent works. Foltin's albums have always had a story and this time it is the journey of Odysseus, the legendary Greek king of Ithaca and the hero of Homer's epic poem the Odyssey. The seven songs (and one instrumental) on the album are inspired by episodes from Odysseus' journey home and his encounters with goddesses, mistresses and sirens, but in this story he never makes home but wanders off somewhere else beyond the pillars of Hercules.
Rich in extraordinary imagery, the album's tales are spun against beautifully mutated grooves, jazz and trip hop themes. The feel and the focus of the album revolves around the rhythmic understanding between Goce Stevkovski and Foltin, while Kodjabashia's ghostly presence floats over with his sonic textures. The album is full of melodic masterpieces and atypically infectious grooves. Again, Branko Nikolov, the experienced captain of the boat, is navigating his crew through stormy seas with his voice and lyrics.
The journey opens with an infectious groove, a gentle stretch of shimmering synths, bells and accordion, all of it driven by Nikolov's joyous voice. In general, Foltin's songs have natural charm and unforced playability, and in that vein, "Kouros" is the perfect opener. "Penelope X" is based on pulsating rhythms that add a distinctly sexy and funky flavor to the song. The whole album builds off these subtle disco touch points, that are expertly woven through the music.
"To Whom Do You Belong Now" is an old song by Kodjabashia, previously done in collaboration with the art rock band DNO on its debut album, Tishina (Chicken Madness, 2004), on which Stevkovski also played. This version has a different kind of intimacy and sweetness to it. Recurring themes from past projects appear here and there. "To Whom Do You Belong Now" also has a few lines from the song "Lo-Lee Ta Too," while "Cinderella Man" is an interesting amalgamation of "Milice" and "Financial Times." All three tracks come from the album Lo-Lee-Taa-Too (Self produced, 2005). "Cinderella Man" is perhaps the album's most radio-ready track, with its sci-fi allure and sparkling beats.
"Dawn of the Rose Red Fingers" is an impressive and playful vocal duet between Branko and Rose Betts (featuring little Angelina Kodjabashia), against a backdrop of beats and symphonic melodies. These dreamy, optimistic yet pulsing sounds revive memories of Royksoppe or Husky Rescue with their downtempo electronica influences, without dwelling exclusively on one particular genre. The electronica flavor can be attributed to Kodjabashia, who has an excellent sense of timing and a clarity of production. He is not a button-pushing man of presets but an excellent composer and a trained pianist.
Penelope X is full of variety. As always, the group is well aware of its strengths and has built layers of details beneath that can go unnoticed, but when noticed, prove easy to treasure. Any dismay at these new retro-futuristic sounds, and the integration of otherworldly concepts, gives way to recognition of an old painting within a new frame. Penelope X is gripping as a dance record, while its gentle melodies are the embodiment of playfulness which makes this record both so special.

 
Лог создания рипа
Exact Audio Copy V0.99 prebeta 5 from 4. May 2009
EAC extraction logfile from 1. April 2011, 19:17
Kodjabashia and Foltin feat. Goce Stevkovski / Penelope X
Used drive : TSSTcorpDVD-ROM SH-D163A Adapter: 3 ID: 0
Read mode : Secure
Utilize accurate stream : Yes
Defeat audio cache : Yes
Make use of C2 pointers : No
Read offset correction : 6
Overread into Lead-In and Lead-Out : No
Fill up missing offset samples with silence : Yes
Delete leading and trailing silent blocks : No
Null samples used in CRC calculations : Yes
Used interface : Native Win32 interface for Win NT & 2000
Gap handling : Appended to previous track
Used output format : User Defined Encoder
Selected bitrate : 192 kBit/s
Quality : High
Add ID3 tag : No
Command line compressor : C:\Program Files (x86)\Exact Audio Copy\Flac\flac.exe
Additional command line options : -V -8 -T "artist=%a" -T "title=%t" -T "album=%g" -T "date=%y" -T "tracknumber=%n" -T "genre=%m" %s
TOC of the extracted CD
Track | Start | Length | Start sector | End sector
---------------------------------------------------------
1 | 0:00.00 | 4:07.51 | 0 | 18575
2 | 4:07.51 | 3:33.51 | 18576 | 34601
3 | 7:41.27 | 5:15.21 | 34602 | 58247
4 | 12:56.48 | 2:17.54 | 58248 | 68576
5 | 15:14.27 | 4:28.66 | 68577 | 88742
6 | 19:43.18 | 4:29.02 | 88743 | 108919
7 | 24:12.20 | 5:02.43 | 108920 | 131612
8 | 29:14.63 | 6:00.46 | 131613 | 158658
Track 1
Filename D:\MP3\02_WaveCD\00_My_Uploads\Kodjabashia and Foltin feat. Goce Stevkovski - Penelope X FLAC\01 - Kouros.wav
Pre-gap length 0:00:02.00
Peak level 98.8 %
Track quality 100.0 %
Test CRC 3CA438D7
Copy CRC 3CA438D7
Track not present in AccurateRip database
Copy OK
Track 2
Filename D:\MP3\02_WaveCD\00_My_Uploads\Kodjabashia and Foltin feat. Goce Stevkovski - Penelope X FLAC\02 - Penelope X.wav
Pre-gap length 0:00:02.00
Peak level 98.9 %
Track quality 100.0 %
Test CRC 9F1BA2F5
Copy CRC 9F1BA2F5
Track not present in AccurateRip database
Copy OK
Track 3
Filename D:\MP3\02_WaveCD\00_My_Uploads\Kodjabashia and Foltin feat. Goce Stevkovski - Penelope X FLAC\03 - To Whom Do You Belong Now .wav
Pre-gap length 0:00:02.00
Peak level 98.9 %
Track quality 100.0 %
Test CRC E4BC1510
Copy CRC E4BC1510
Track not present in AccurateRip database
Copy OK
Track 4
Filename D:\MP3\02_WaveCD\00_My_Uploads\Kodjabashia and Foltin feat. Goce Stevkovski - Penelope X FLAC\04 - Na Na (Sirens) (feat. Rebeka).wav
Pre-gap length 0:00:02.00
Peak level 92.9 %
Track quality 100.0 %
Test CRC 0165B903
Copy CRC 0165B903
Track not present in AccurateRip database
Copy OK
Track 5
Filename D:\MP3\02_WaveCD\00_My_Uploads\Kodjabashia and Foltin feat. Goce Stevkovski - Penelope X FLAC\05 - Cinderella Man.wav
Pre-gap length 0:00:02.00
Peak level 98.4 %
Track quality 100.0 %
Test CRC 641DE7B7
Copy CRC 641DE7B7
Track not present in AccurateRip database
Copy OK
Track 6
Filename D:\MP3\02_WaveCD\00_My_Uploads\Kodjabashia and Foltin feat. Goce Stevkovski - Penelope X FLAC\06 - True Blue Eyes (Calypso).wav
Pre-gap length 0:00:02.00
Peak level 96.1 %
Track quality 100.0 %
Test CRC 661924BA
Copy CRC 661924BA
Track not present in AccurateRip database
Copy OK
Track 7
Filename D:\MP3\02_WaveCD\00_My_Uploads\Kodjabashia and Foltin feat. Goce Stevkovski - Penelope X FLAC\07 - Dawn of the Rose Red Fingers (feat. Rose Betts and Angelina Kodjabashia).wav
Pre-gap length 0:00:02.00
Peak level 98.8 %
Track quality 100.0 %
Test CRC C64FFD9A
Copy CRC C64FFD9A
Track not present in AccurateRip database
Copy OK
Track 8
Filename D:\MP3\02_WaveCD\00_My_Uploads\Kodjabashia and Foltin feat. Goce Stevkovski - Penelope X FLAC\08 - The Pillars of Hercules (Homecoming).wav
Pre-gap length 0:00:02.00
Peak level 86.1 %
Track quality 99.9 %
Test CRC 4C557285
Copy CRC 4C557285
Track not present in AccurateRip database
Copy OK
None of the tracks are present in the AccurateRip database
No errors occurred
End of status report
 
Содержание индексной карты (.CUE)
REM GENRE Experimental
REM DATE 2011
REM DISCID 74084308
REM COMMENT "ExactAudioCopy v0.99pb5"
PERFORMER "Kodjabashia and Foltin feat. Goce Stevkovski"
TITLE "Penelope X"
FILE "01 - Kouros.wav" WAVE
TRACK 01 AUDIO
TITLE "Kouros"
PERFORMER "Kodjabashia and Foltin feat. Goce Stevkovski"
INDEX 01 00:00:00
TRACK 02 AUDIO
TITLE "Penelope X"
PERFORMER "Kodjabashia and Foltin feat. Goce Stevkovski"
INDEX 00 04:05:51
FILE "02 - Penelope X.wav" WAVE
INDEX 01 00:00:00
TRACK 03 AUDIO
TITLE "To Whom Do You Belong Now?"
PERFORMER "Kodjabashia and Foltin feat. Goce Stevkovski"
INDEX 00 03:31:51
FILE "03 - To Whom Do You Belong Now .wav" WAVE
INDEX 01 00:00:00
TRACK 04 AUDIO
TITLE "Na Na (Sirens) (feat. Rebeka)"
PERFORMER "Kodjabashia and Foltin feat. Goce Stevkovski"
INDEX 00 05:13:21
FILE "04 - Na Na (Sirens) (feat. Rebeka).wav" WAVE
INDEX 01 00:00:00
TRACK 05 AUDIO
TITLE "Cinderella Man"
PERFORMER "Kodjabashia and Foltin feat. Goce Stevkovski"
INDEX 00 02:15:54
FILE "05 - Cinderella Man.wav" WAVE
INDEX 01 00:00:00
TRACK 06 AUDIO
TITLE "True Blue Eyes (Calypso)"
PERFORMER "Kodjabashia and Foltin feat. Goce Stevkovski"
INDEX 00 04:26:66
FILE "06 - True Blue Eyes (Calypso).wav" WAVE
INDEX 01 00:00:00
TRACK 07 AUDIO
TITLE "Dawn of the Rose Red Fingers (feat. Rose Betts and Angelina Kodjabashia)"
PERFORMER "Kodjabashia and Foltin feat. Goce Stevkovski"
INDEX 00 04:27:02
FILE "07 - Dawn of the Rose Red Fingers (feat. Rose Betts and Angelina Kodjabashia).wav" WAVE
INDEX 01 00:00:00
TRACK 08 AUDIO
TITLE "The Pillars of Hercules (Homecoming)"
PERFORMER "Kodjabashia and Foltin feat. Goce Stevkovski"
INDEX 00 05:00:43
FILE "08 - The Pillars of Hercules (Homecoming).wav" WAVE
INDEX 01 00:00:00
 
Лог проверки качества
AUDIOCHECKER v2.0 beta (build 457) - by Dester - opdester@freemail.hu
~~~~~~~~~~~~~~~~~~~~~~~~~~~~~~~~~~
-=== DO NOT EDIT THIS FILE! ===-
Path: ...\Kodjabashia and Foltin feat. Goce Stevkovski - Penelope X FLAC
1 -=- 01 - Kouros.flac -=- CDDA (100%)
2 -=- 02 - Penelope X.flac -=- CDDA (100%)
3 -=- 03 - To Whom Do You Belong Now .flac -=- CDDA (100%)
4 -=- 04 - Na Na (Sirens) (feat. Rebeka).flac -=- CDDA (100%)
5 -=- 05 - Cinderella Man.flac -=- CDDA (100%)
6 -=- 06 - True Blue Eyes (Calypso).flac -=- CDDA (100%)
7 -=- 07 - Dawn of the Rose Red Fingers (feat. Rose Betts and Angelina Kodjabashia).flac -=- CDDA (94%)
8 -=- 08 - The Pillars of Hercules (Homecoming).flac -=- CDDA (100%)
Summary 99,25% CDDA
60119204
Any questions -> support@pro-jazz.com. По всем вопросам пишите -> support@pro-jazz.com
11:05
123
Нет комментариев. Ваш будет первым!