Поиск

(Smooth Jazz/Pop Jazz) [CD] Jeff Golub - The Vault - 2015, FLAC (image+.cue), lossless

(Smooth Jazz/Pop Jazz) [CD] Jeff Golub - The Vault - 2015, FLAC (image+.cue), lossless
Треклист:
Jeff Golub / The Vault
Жанр: Smooth Jazz/Pop Jazz
Носитель: CD
Страна-производитель диска (релиза): USA
Год издания: 2015
Издатель (лейбл): eOne Music
Номер по каталогу: EOM-CD-9484
Страна исполнителя (группы): USA
Аудиокодек: FLAC (*.flac)
Тип рипа: image+.cue
Битрейт аудио: lossless
Продолжительность: 47'44''
Источник (релизер): RedHotBlues
Наличие сканов в содержимом раздачи: да
Треклист:
CD: Jeff Golub - The Vault
01. Funky Is As Funky Does [0:03:49.18]
02. One More Excuse to Play the Blues [0:03:51.20]
03. Open Up [0:03:32.54]
04. Gimmie Some [0:04:35.48]
05. Swagster (PKJ) [0:04:18.68]
06. Keep the Ball Rolling [0:04:15.50]
07. Jeff's Blues (Mamma Didn't) [0:04:45.59]
08. Groanin [0:03:54.55]
09. Atlanta Nights [0:05:05.41]
10. Naked City (Live Recording) [0:09:33.20]
 
Лог создания рипа
Exact Audio Copy V1.0 beta 6 from 9. April 2015
Отчёт EAC об извлечении, выполненном 6. мая 2015, 2:34
Jeff Golub / The Vault
Дисковод: ATAPI iHAS122 C Adapter: 1 ID: 3
Режим чтения : Достоверность
Использование точного потока : Да
Отключение кэша аудио : Да
Использование указателей C2 : Нет
Коррекция смещения при чтении : 6
Способность читать области Lead-in и Lead-out : Нет
Заполнение пропущенных сэмплов тишиной : Да
Удаление блоков с тишиной в начале и конце : Нет
При вычислениях CRC использовались нулевые сэмплы : Да
Интерфейс : Встроенный Win32-интерфейс для Win NT/2000
Выходной формат : Пользовательский кодировщик
Выбранный битрейт : 768 kBit/s
Качество : Высокий
Добавление ID3-тега : Нет
Утилита сжатия : C:\Program Files\Exact Audio Copy\Flac\flac.exe
Дополнительные параметры : -6 -V -T "ARTIST=%artist%" -T "TITLE=%title%" -T "ALBUM=%albumtitle%" -T "DATE=%year%" -T "TRACKNUMBER=%tracknr%" -T "GENRE=%genre%" -T "COMMENT=%comment%" -T "BAND=%albuminterpret%" -T "ALBUMARTIST=%albuminterpret%" -T "COMPOSER=%composer%" %haslyrics%--tag-from-file=LYRICS="%lyricsfile%"%haslyrics% -T "DISCNUMBER=%cdnumber%" -T "TOTALDISCS=%totalcds%" -T "TOTALTRACKS=%numtracks%" %hascover%--picture="%coverfile%"%hascover% %source% -o %dest%
TOC извлечённого CD
Трек | Старт | Длительность | Начальный сектор | Конечный сектор
---------------------------------------------------------------------
1 | 0:00.00 | 3:49.18 | 0 | 17192
2 | 3:49.18 | 3:51.20 | 17193 | 34537
3 | 7:40.38 | 3:32.54 | 34538 | 50491
4 | 11:13.17 | 4:35.48 | 50492 | 71164
5 | 15:48.65 | 4:18.68 | 71165 | 90582
6 | 20:07.58 | 4:15.50 | 90583 | 109757
7 | 24:23.33 | 4:45.59 | 109758 | 131191
8 | 29:09.17 | 3:54.55 | 131192 | 148796
9 | 33:03.72 | 5:05.41 | 148797 | 171712
10 | 38:09.38 | 9:33.20 | 171713 | 214707
Характеристики диапазона извлечения и сообщения об ошибках
Выбранный диапазон
Имя файла C:\Users\TITANIUM\Desktop\Jeff Golub - The Vault - 2015 - 47'44''\Jeff Golub - The Vault.wav
Пиковый уровень 98.2 %
Скорость извлечения 6.5 X
Качество диапазона 99.9 %
CRC теста F2825BD2
CRC копии F2825BD2
Копирование... OK
Ошибок не произошло
Конец отчёта
---- CUETools DB Plugin V2.1.6
[CTDB TOCID: GIXJyEvYGCSDyg29pDvkF941cRg-] found
Submit result: already submitted
Track | CTDB Status
1 | (4/4) Accurately ripped
2 | (4/4) Accurately ripped
3 | (4/4) Accurately ripped
4 | (4/4) Accurately ripped
5 | (4/4) Accurately ripped
6 | (4/4) Accurately ripped
7 | (4/4) Accurately ripped
8 | (4/4) Accurately ripped
9 | (4/4) Accurately ripped
10 | (4/4) Accurately ripped
==== Контрольная сумма отчёта D7E5C2F613973CB7D0637C814207694A6703344CFF02C554C3571570F0B8DBCD ====
 
Лог проверки качества
-----------------------
DON'T MODIFY THIS FILE
-----------------------
PERFORMER: auCDtect Task Manager, ver. 1.5.1RC4 build 1.5.1.5
Copyright (c) 2008-2010 y-soft. All rights reserved
http://y-soft.org
ANALYZER: auCDtect: CD records authenticity detector, version 0.8.2
Copyright (c) 2004 Oleg Berngardt. All rights reserved.
Copyright (c) 2004 Alexander Djourik. All rights reserved.
FILE: Jeff Golub - The Vault.flac
Size: 314675544 Hash: A5FFDE9A9190E84ABAB4884904FE8752 Accuracy: -m0
Conclusion: CDDA 100%
Signature: 8F2B39A7842E5DABF90503882619795FB7BC3AB8
 
Скриншот спектра частот
Доп. информация: Матрица в рабочей папке!
Приватный:
Нет (DHT включён)
Размер:
365.23 Мб (382,969,877 байт) » файлов: 13
Участники:
0 раздают, 1 качают (1 участников всего)
Внешние участники:
5 раздают, 1 качают (6 участников всего) [ Обновить ]
For power users only: no seeders - write personal message to M0p94ok. Для power user: нет сидеров - пишите в личку M0p94ok.
09:42
197
Нет комментариев. Ваш будет первым!