Поиск

(Smooth Jazz) Various - Smooth Operators (Great Smooth Jazz Moments) - 2002, APE (image + .cue), lossless

Треклист:
Various - Smooth Operators (Great Smooth Jazz Moments)
Страна: USA
Жанр: Smooth Jazz
Год выпуска: 2002
Формат: APE (image + .cue)
Битрейт аудио: lossless
Продолжительность: 58:19
Трэклист:
1. (00:04:23) Through The Looking Glass (Chris Standring) - Through The Looking Glass (Chris Standring)
2. (00:03:26) Darlin Darlin Baby (Brian Tarquin) - Darlin Darlin Baby (Brian Tarquin)
3. (00:04:40) European Comfort (Gota) - European Comfort (Gota)
4. (00:03:34) Wes Who? (Count Basic) - Wes Who? (Count Basic)
5. (00:03:20) Heavy Shift (Oxo Cubed) - Heavy Shift (Oxo Cubed)
6. (00:03:33) In The City Life (Gota) - In The City Life (Gota)
7. (00:04:29) Morning Song (Soundscape UK) - Morning Song (Soundscape UK)
8. (00:04:38) Hip Sway (Chris Standring) - Hip Sway (Chris Standring)
9. (00:06:14) Nightride (The V.I.P. Club) - Nightride (The V.I.P. Club)
10. (00:03:45) Charlemagne (Brian Tarquin) - Charlemagne (Brian Tarquin)
11. (00:04:06) Joy and Pain (Count Basic) - Joy and Pain (Count Basic)
12. (00:03:21) Open Your Heart (Nite Flyte) - Open Your Heart (Nite Flyte)
13. (00:03:45) Blue Azure (Shakatak) - Blue Azure (Shakatak)
14. (00:04:27) Summer Solstice (Exodus Quartet) - Summer Solstice (Exodus Quartet)
 
Files
Covers.ncd
tau.jpg
Various - Smooth Operators (Great Smooth Jazz Moments)(ape).cue
Various - Smooth Operators (Great Smooth Jazz Moments).ape
Various - Smooth Operators (Great Smooth Jazz Moments).cue
Various - Smooth Operators (Great Smooth Jazz Moments).log
 
EAC Log
Exact Audio Copy V0.99 prebeta 4 from 23. January 2008
Отчёт EAC об извлечении, выполненном 14. апреля 2008, 17:23
Various / Smooth Operators (Great Smooth Jazz Moments)
Дисковод: _NEC DVD_RW ND-3550A Adapter: 1 ID: 0
Режим чтения : Достоверность
Использование точного потока : Да
Отключение кэша аудио : Да
Использование указателей C2 : Нет
Коррекция смещения при чтении : 48
Способность читать области Lead-in и Lead-out : Нет
Заполнение пропущенных сэмплов тишиной : Да
Удаление блоков с тишиной в начале и конце : Нет
При вычислениях CRC использовались нулевые сэмплы : Нет
Интерфейс : Встроенный Win32-интерфейс для Win NT/2000
Выходной формат : Внутренние WAV-операции
Формат сэмплов : 44.100 Гц; 16 бит; стерео
TOC извлечённого CD
Трек | Старт | Длительность | Начальный сектор | Конечный сектор
---------------------------------------------------------------------
1 | 0:00.00 | 4:26.03 | 0 | 19952
2 | 4:26.03 | 3:29.36 | 19953 | 35663
3 | 7:55.39 | 4:43.07 | 35664 | 56895
4 | 12:38.46 | 3:36.43 | 56896 | 73138
5 | 16:15.14 | 3:23.10 | 73139 | 88373
6 | 19:38.24 | 3:35.59 | 88374 | 104557
7 | 23:14.08 | 4:31.71 | 104558 | 124953
8 | 27:46.04 | 4:41.01 | 124954 | 146029
9 | 32:27.05 | 6:17.18 | 146030 | 174322
10 | 38:44.23 | 3:48.43 | 174323 | 191465
11 | 42:32.66 | 4:08.39 | 191466 | 210104
12 | 46:41.30 | 3:23.57 | 210105 | 225386
13 | 50:05.12 | 3:47.69 | 225387 | 242480
14 | 53:53.06 | 4:26.63 | 242481 | 262493
Характеристики диапазона извлечения и сообщения об ошибках
Выбранный диапазон
Имя файла F:\Images\Smooth Operators va\Various - Smooth Operators (Great Smooth Jazz Moments).wav
Пиковый уровень 100.0 %
Качество диапазона 100.0 %
CRC копии 3D8B4E40
Копирование... OK
Ошибок не произошло
AccurateRip: сводка
Трек 1 нет в базе данных
Трек 2 нет в базе данных
Трек 3 нет в базе данных
Трек 4 нет в базе данных
Трек 5 нет в базе данных
Трек 6 нет в базе данных
Трек 7 нет в базе данных
Трек 8 нет в базе данных
Трек 9 нет в базе данных
Трек 10 нет в базе данных
Трек 11 нет в базе данных
Трек 12 нет в базе данных
Трек 13 нет в базе данных
Трек 14 нет в базе данных
Ни одного трека нет в базе AccurateRip
Конец отчёта
 
tau
Приватный:
Нет (DHT включён)
Размер:
358.36 Мб (375,771,660 байт) » файлов: 6
Участники:
0 раздают, 0 качают (0 участников всего)
Внешние участники:
1 раздают, 0 качают (1 участников всего) [ Обновить ]
12:36
16
Нет комментариев. Ваш будет первым!