Поиск

(Smooth Jazz, Saxophone Jazz) John Klemmer - Finesse/Magnificent Madness - 2005, FLAC (tracks+.cue), lossless

Треклист:
John Klemmer - Finesse/Magnificent Madness
Жанр: Smooth Jazz, Saxophone Jazz
Страна-производитель диска: USA Guilderland, New York
Год издания диска: 2005
Издатель (лейбл): Wounded Bird Records
Номер по каталогу: WOU 197
Страна: US Chicago, IL
Аудиокодек: FLAC (*.flac)
Тип рипа: tracks+.cue
Битрейт аудио: lossless
Продолжительность: 01:17:57
Источник (релизер): dadirtydj
Наличие сканов в содержимом раздачи: нет
01. Finesse [04:00]
02. Man & Woman [04:35]
03. Sometimes [05:29]
04. The Greatest Love of All [03:02]
05. Heart [04:22]
06. The Sun, The Moon And The Stars [03:49]
07. Beloved [06:13]
08. Beloved [06:13]
09. Magnificent Madness [07:27]
10. Heart (Summer Song) [03:20]
11. Don't Take Your Love Away [06:20]
12. I Can't Help It [03:20]
13. We Couldn't Start Over [04:04]
14. Deja Vu [04:29]
15. Lifesong [04:01]
16. Adventures In Paradise [07:05]
 
Лог создания рипа
Exact Audio Copy V0.99 prebeta 5 from 4. May 2009
EAC extraction logfile from 19. September 2010, 17:54
John Klemmer / Finesse-Magnificent Madness
Used drive : HP DVD Writer 640b Adapter: 3 ID: 0
Read mode : Secure
Utilize accurate stream : Yes
Defeat audio cache : Yes
Make use of C2 pointers : No
Read offset correction : 102
Overread into Lead-In and Lead-Out : No
Fill up missing offset samples with silence : Yes
Delete leading and trailing silent blocks : No
Null samples used in CRC calculations : Yes
Used interface : Native Win32 interface for Win NT & 2000
Gap handling : Appended to previous track
Used output format : User Defined Encoder
Selected bitrate : 1024 kBit/s
Quality : High
Add ID3 tag : No
Command line compressor : C:\Program Files\Exact Audio Copy\Flac\flac.exe
Additional command line options : -V -8 -T "artist=%a" -T "title=%t" -T "album=%g" -T "date=%y" -T "tracknumber=%n" -T "genre=%m" %s
TOC of the extracted CD
Track | Start | Length | Start sector | End sector
---------------------------------------------------------
1 | 0:00.00 | 4:00.43 | 0 | 18042
2 | 4:00.43 | 4:35.31 | 18043 | 38698
3 | 8:35.74 | 5:29.65 | 38699 | 63438
4 | 14:05.64 | 3:02.16 | 63439 | 77104
5 | 17:08.05 | 4:22.02 | 77105 | 96756
6 | 21:30.07 | 3:49.20 | 96757 | 113951
7 | 25:19.27 | 6:13.69 | 113952 | 141995
8 | 31:33.21 | 3:39.33 | 141996 | 158453
9 | 35:12.54 | 7:27.60 | 158454 | 192038
10 | 42:40.39 | 3:20.61 | 192039 | 207099
11 | 46:01.25 | 6:20.53 | 207100 | 235652
12 | 52:22.03 | 3:20.65 | 235653 | 250717
13 | 55:42.68 | 4:04.02 | 250718 | 269019
14 | 59:46.70 | 4:29.73 | 269020 | 289267
15 | 64:16.68 | 4:01.38 | 289268 | 307380
16 | 68:18.31 | 7:05.05 | 307381 | 339260
Track 1
Filename G:\My Music 2\01 - Finesse - John Klemmer.wav
Pre-gap length 0:00:02.00
Peak level 100.0 %
Track quality 100.0 %
Test CRC 8289B6F5
Copy CRC 8289B6F5
Accurately ripped (confidence 4) [394CD2F8]
Copy OK
Track 2
Filename G:\My Music 2\02 - Man & Woman - John Klemmer.wav
Pre-gap length 0:00:00.01
Peak level 91.3 %
Track quality 100.0 %
Test CRC B5F143B5
Copy CRC B5F143B5
Accurately ripped (confidence 4) [F97DA492]
Copy OK
Track 3
Filename G:\My Music 2\03 - Sometimes - John Klemmer.wav
Peak level 87.3 %
Track quality 100.0 %
Test CRC 25F3858F
Copy CRC 25F3858F
Accurately ripped (confidence 4) [06D69534]
Copy OK
Track 4
Filename G:\My Music 2\04 - The Greatest Love of All - John Klemmer.wav
Peak level 86.9 %
Track quality 100.0 %
Test CRC 7C60AB35
Copy CRC 7C60AB35
Accurately ripped (confidence 4) [2B31DB88]
Copy OK
Track 5
Filename G:\My Music 2\05 - Heart - John Klemmer.wav
Peak level 72.4 %
Track quality 100.0 %
Test CRC CFA333C9
Copy CRC CFA333C9
Accurately ripped (confidence 4) [F4AA07A9]
Copy OK
Track 6
Filename G:\My Music 2\06 - The Sun, The Moon And The Stars - John Klemmer.wav
Peak level 77.6 %
Track quality 100.0 %
Test CRC 89759907
Copy CRC 89759907
Accurately ripped (confidence 4) [0FFF4E3E]
Copy OK
Track 7
Filename G:\My Music 2\07 - Beloved - John Klemmer.wav
Peak level 76.1 %
Track quality 99.9 %
Test CRC 0208E623
Copy CRC 0208E623
Accurately ripped (confidence 4) [D00A8FA2]
Copy OK
Track 8
Filename G:\My Music 2\08 - Bur Are You Beautiful Inside - John Klemmer.wav
Peak level 71.0 %
Track quality 100.0 %
Test CRC 11239276
Copy CRC 11239276
Accurately ripped (confidence 4) [C502B188]
Copy OK
Track 9
Filename G:\My Music 2\09 - Magnificent Madness - John Klemmer.wav
Peak level 92.7 %
Track quality 100.0 %
Test CRC 5853BC79
Copy CRC 5853BC79
Accurately ripped (confidence 4) [022FF880]
Copy OK
Track 10
Filename G:\My Music 2\10 - Heart (Summer Song) - John Klemmer.wav
Peak level 88.8 %
Track quality 100.0 %
Test CRC 480C8CFB
Copy CRC 480C8CFB
Accurately ripped (confidence 4) [00274D78]
Copy OK
Track 11
Filename G:\My Music 2\11 - Don't Take Your Love Away - John Klemmer.wav
Peak level 100.0 %
Track quality 100.0 %
Test CRC EB2D2EF4
Copy CRC EB2D2EF4
Accurately ripped (confidence 4) [9AA05A9D]
Copy OK
Track 12
Filename G:\My Music 2\12 - I Can't Help It - John Klemmer.wav
Peak level 93.7 %
Track quality 100.0 %
Test CRC CB0D4B56
Copy CRC CB0D4B56
Accurately ripped (confidence 4) [C87FA7AF]
Copy OK
Track 13
Filename G:\My Music 2\13 - We Couldn't Start Over - John Klemmer.wav
Peak level 90.8 %
Track quality 100.0 %
Test CRC 69F9784E
Copy CRC 69F9784E
Accurately ripped (confidence 4) [492089F1]
Copy OK
Track 14
Filename G:\My Music 2\14 - Deja Vu - John Klemmer.wav
Peak level 84.6 %
Track quality 99.9 %
Test CRC 775B7B59
Copy CRC 775B7B59
Accurately ripped (confidence 4) [D500E156]
Copy OK
Track 15
Filename G:\My Music 2\15 - Lifesong - John Klemmer.wav
Peak level 77.3 %
Track quality 100.0 %
Test CRC BD80AAD7
Copy CRC BD80AAD7
Accurately ripped (confidence 3) [A0FE9150]
Copy OK
Track 16
Filename G:\My Music 2\16 - Adventures In Paradise - John Klemmer.wav
Peak level 98.1 %
Track quality 99.9 %
Test CRC E5F98631
Copy CRC E5F98631
Accurately ripped (confidence 2) [18D656A5]
Copy OK
All tracks accurately ripped
No errors occurred
End of status report
 
Содержание индексной карты (.CUE)
REM GENRE Jazz
REM DATE 1980
REM DISCID D411AB10
REM COMMENT "ExactAudioCopy v0.99pb5"
PERFORMER "John Klemmer"
TITLE "Finesse-Magnificent Madness"
FILE "01 - Finesse - John Klemmer.wav" WAVE
TRACK 01 AUDIO
TITLE "Finesse"
PERFORMER "John Klemmer"
INDEX 01 00:00:00
TRACK 02 AUDIO
TITLE "Man & Woman"
PERFORMER "John Klemmer"
INDEX 00 04:00:42
FILE "02 - Man & Woman - John Klemmer.wav" WAVE
INDEX 01 00:00:00
FILE "03 - Sometimes - John Klemmer.wav" WAVE
TRACK 03 AUDIO
TITLE "Sometimes"
PERFORMER "John Klemmer"
INDEX 01 00:00:00
FILE "04 - The Greatest Love of All - John Klemmer.wav" WAVE
TRACK 04 AUDIO
TITLE "The Greatest Love of All"
PERFORMER "John Klemmer"
INDEX 01 00:00:00
FILE "05 - Heart - John Klemmer.wav" WAVE
TRACK 05 AUDIO
TITLE "Heart"
PERFORMER "John Klemmer"
INDEX 01 00:00:00
FILE "06 - The Sun, The Moon And The Stars - John Klemmer.wav" WAVE
TRACK 06 AUDIO
TITLE "The Sun, The Moon And The Stars"
PERFORMER "John Klemmer"
INDEX 01 00:00:00
FILE "07 - Beloved - John Klemmer.wav" WAVE
TRACK 07 AUDIO
TITLE "Beloved"
PERFORMER "John Klemmer"
INDEX 01 00:00:00
FILE "08 - Bur Are You Beautiful Inside - John Klemmer.wav" WAVE
TRACK 08 AUDIO
TITLE "Bur Are You Beautiful Inside"
PERFORMER "John Klemmer"
INDEX 01 00:00:00
FILE "09 - Magnificent Madness - John Klemmer.wav" WAVE
TRACK 09 AUDIO
TITLE "Magnificent Madness"
PERFORMER "John Klemmer"
INDEX 01 00:00:00
FILE "10 - Heart (Summer Song) - John Klemmer.wav" WAVE
TRACK 10 AUDIO
TITLE "Heart (Summer Song)"
PERFORMER "John Klemmer"
INDEX 01 00:00:00
FILE "11 - Don't Take Your Love Away - John Klemmer.wav" WAVE
TRACK 11 AUDIO
TITLE "Don't Take Your Love Away"
PERFORMER "John Klemmer"
INDEX 01 00:00:00
FILE "12 - I Can't Help It - John Klemmer.wav" WAVE
TRACK 12 AUDIO
TITLE "I Can't Help It"
PERFORMER "John Klemmer"
INDEX 01 00:00:00
FILE "13 - We Couldn't Start Over - John Klemmer.wav" WAVE
TRACK 13 AUDIO
TITLE "We Couldn't Start Over"
PERFORMER "John Klemmer"
INDEX 01 00:00:00
FILE "14 - Deja Vu - John Klemmer.wav" WAVE
TRACK 14 AUDIO
TITLE "Deja Vu"
PERFORMER "John Klemmer"
INDEX 01 00:00:00
FILE "15 - Lifesong - John Klemmer.wav" WAVE
TRACK 15 AUDIO
TITLE "Lifesong"
PERFORMER "John Klemmer"
INDEX 01 00:00:00
FILE "16 - Adventures In Paradise - John Klemmer.wav" WAVE
TRACK 16 AUDIO
TITLE "Adventures In Paradise"
PERFORMER "John Klemmer"
INDEX 01 00:00:00
 
Состав
John Klemmer (tenor saxophone)
Russell Ferrante (keyboards)
Roy McCurdy (drums)
Steve Forman (percussion)
Приватный:
Нет (DHT включён)
Размер:
412.29 Мб (432,314,953 байт) » файлов: 20
Участники:
0 раздают, 0 качают (0 участников всего)
Внешние участники:
3 раздают, 1 качают (4 участников всего) [ Обновить ]
For power users only: no seeders - write personal message to M0p94ok. Для power user: нет сидеров - пишите в личку M0p94ok.
01:40
180
Нет комментариев. Ваш будет первым!