Поиск

(Smooth Jazz) Richard Elliot - Crush - 2001, APE (image + .cue), lossless

Треклист:
Richard Elliot - Crush
Страна: USA
Жанр: Smooth Jazz
Год выпуска: 2001
Формат: APE (image + .cue)
Битрейт аудио: lossless
Продолжительность: 41:59
Трэклист:
1. Crush
2. Q.T.
3. Still Sweet On You
4. If I Kissed You
5. Work All Night
6. Melrose Diner
7. Brand New Love Affair
8. Coco
9. Shotgun
10. Sticky Wicked
 
Files
Covers.ncd
Richard Elliot - Crush(ape).cue
Richard Elliot - Crush.ape
Richard Elliot - Crush.cue
Richard Elliot - Crush.log
tau.jpg
 
EAC Log
Exact Audio Copy V0.99 prebeta 4 from 23. January 2008
Отчёт EAC об извлечении, выполненном 22. марта 2008, 14:49
Richard Elliot / Crush
Дисковод: _NEC DVD_RW ND-3550A Adapter: 1 ID: 0
Режим чтения : Достоверность
Использование точного потока : Да
Отключение кэша аудио : Да
Использование указателей C2 : Нет
Коррекция смещения при чтении : 48
Способность читать области Lead-in и Lead-out : Нет
Заполнение пропущенных сэмплов тишиной : Да
Удаление блоков с тишиной в начале и конце : Нет
При вычислениях CRC использовались нулевые сэмплы : Нет
Интерфейс : Встроенный Win32-интерфейс для Win NT/2000
Выходной формат : Внутренние WAV-операции
Формат сэмплов : 44.100 Гц; 16 бит; стерео
TOC извлечённого CD
Трек | Старт | Длительность | Начальный сектор | Конечный сектор
---------------------------------------------------------------------
1 | 0:00.00 | 3:40.27 | 0 | 16526
2 | 3:40.27 | 4:08.30 | 16527 | 35156
3 | 7:48.57 | 4:20.15 | 35157 | 54671
4 | 12:08.72 | 4:14.33 | 54672 | 73754
5 | 16:23.30 | 4:09.72 | 73755 | 92501
6 | 20:33.27 | 4:27.30 | 92502 | 112556
7 | 25:00.57 | 4:11.63 | 112557 | 131444
8 | 29:12.45 | 4:49.67 | 131445 | 153186
9 | 34:02.37 | 3:28.40 | 153187 | 168826
10 | 37:31.02 | 4:31.25 | 168827 | 189176
Характеристики диапазона извлечения и сообщения об ошибках
Выбранный диапазон
Имя файла F:\Images\Richard Elliot\Richard Elliot - Crush.wav
Пиковый уровень 100.0 %
Качество диапазона 99.9 %
CRC копии E0CC8D62
Копирование... OK
Ошибок не произошло
AccurateRip: сводка
Трек 1 точность не определена (достоверность 1) [2EF8B7F2], AccurateRip вернул [E72E6A20]
Трек 2 точность не определена (достоверность 1) [9D1D7FA5], AccurateRip вернул [D8882469]
Трек 3 точность не определена (достоверность 1) [B933F08D], AccurateRip вернул [85496F6C]
Трек 4 точность не определена (достоверность 1) [785A9A27], AccurateRip вернул [FC8C9AA0]
Трек 5 точность не определена (достоверность 1) [2F6EF802], AccurateRip вернул [36661411]
Трек 6 точность не определена (достоверность 1) [A366A9DF], AccurateRip вернул [203A4AD7]
Трек 7 точность не определена (достоверность 1) [873EB053], AccurateRip вернул [8E11C98E]
Трек 8 точность не определена (достоверность 1) [EE28A28C], AccurateRip вернул [BF0D13D2]
Трек 9 точность не определена (достоверность 1) [7D4498B4], AccurateRip вернул [84A6160D]
Трек 10 точность не определена (достоверность 1) [A9692DD9], AccurateRip вернул [F9871D59]
Ни один трек не прошёл проверки на точность
В вашей базе может быть иной вариант штамповки диска
Конец отчёта
 
tau
 
Состав

Приватный:
Нет (DHT включён)
Размер:
265.33 Мб (278,213,925 байт) » файлов: 6
Участники:
0 раздают, 0 качают (0 участников всего)
Внешние участники:
3 раздают, 1 качают (4 участников всего) [ Обновить ]
12:24
5
Нет комментариев. Ваш будет первым!