Поиск

(Smooth Jazz, Piano) Brian Simpson - Closer Still - 1995, FLAC (tracks)

Треклист:
Brian Simpson - Closer Still [1995]
Жанр: Smooth Jazz
Количество треков: 12
Продолжительность: 0:51:44
Размер файлов: 322,00 MB
Формат: FLAC
Дополнительно: M3U, LOG
Список треков
===================

NN Duration Track Name (Size)
01 0:04:34 Brian Simpson - Because of Love (30,16 mb)
02 0:05:28 Brian Simpson - Closer Still (35,69 mb)
03 0:05:37 Brian Simpson - April (31,88 mb)
04 0:05:30 Brian Simpson - Hidden Pleasures (34,55 mb)
05 0:01:01 Brian Simpson - Midnight Crazies (5,93 mb)
06 0:06:00 Brian Simpson - Brazilia (35,71 mb)
07 0:05:15 Brian Simpson - Someone Just Like You (31,80 mb)
08 0:00:38 Brian Simpson - Your Smile (3,12 mb)
09 0:04:55 Brian Simpson - in Motion (31,65 mb)
10 0:05:02 Brian Simpson - Morningh Glories (29,65 mb)
11 0:06:04 Brian Simpson - Lake Shore Drive (41,89 mb)
12 0:01:40 Brian Simpson - Armani B. (9,97 mb)
 
Отчет EAC
EAC extraction logfile from 10. January 2008, 22:59 for CD
Brian Simpson / Closer Still
Used drive : PIONEER DVD-RW DVR-110D Adapter: 0 ID: 0
Read mode : Secure with NO C2, accurate stream, disable cache
Read offset correction : 48
Overread into Lead-In and Lead-Out : No
Used output format : C:\Program Files\FLAC\flac.exe (User Defined Encoder)
320 kBit/s
Additional command line options : -T "artist=%a" -T "title=%t" -T "album=%g" -T "date=%y" -T "tracknumber=%n" -T "genre=%m" %s -8
Other options :
Fill up missing offset samples with silence : Yes
Delete leading and trailing silent blocks : No
Installed external ASPI interface
Track 1
Filename C:\EAC Rip\Brian Simpson - Closer Still\Brian Simpson - Closer Still - 01 Because of Love.wav
Peak level 97.6 %
Track quality 100.0 %
Test CRC CB4E5F5F
Copy CRC CB4E5F5F
Copy OK
Track 2
Filename C:\EAC Rip\Brian Simpson - Closer Still\Brian Simpson - Closer Still - 02 Closer Still.wav
Peak level 94.4 %
Track quality 100.0 %
Test CRC F8EB46B0
Copy CRC F8EB46B0
Copy OK
Track 3
Filename C:\EAC Rip\Brian Simpson - Closer Still\Brian Simpson - Closer Still - 03 April.wav
Peak level 93.8 %
Track quality 100.0 %
Test CRC EADA62C4
Copy CRC EADA62C4
Copy OK
Track 4
Filename C:\EAC Rip\Brian Simpson - Closer Still\Brian Simpson - Closer Still - 04 Hidden Pleasures.wav
Peak level 96.7 %
Track quality 100.0 %
Test CRC 7E33B64D
Copy CRC 7E33B64D
Copy OK
Track 5
Filename C:\EAC Rip\Brian Simpson - Closer Still\Brian Simpson - Closer Still - 05 Midnight Crazies.wav
Peak level 84.3 %
Track quality 99.8 %
Test CRC BF4F964A
Copy CRC BF4F964A
Copy OK
Track 6
Filename C:\EAC Rip\Brian Simpson - Closer Still\Brian Simpson - Closer Still - 06 Brazilia.wav
Peak level 92.9 %
Track quality 100.0 %
Test CRC 242FA424
Copy CRC 242FA424
Copy OK
Track 7
Filename C:\EAC Rip\Brian Simpson - Closer Still\Brian Simpson - Closer Still - 07 Someone Just Like You.wav
Peak level 96.0 %
Track quality 100.0 %
Test CRC 35636CB8
Copy CRC 35636CB8
Copy OK
Track 8
Filename C:\EAC Rip\Brian Simpson - Closer Still\Brian Simpson - Closer Still - 08 Your Smile.wav
Peak level 49.8 %
Track quality 100.0 %
Test CRC 40DE3DB6
Copy CRC 40DE3DB6
Copy OK
Track 9
Filename C:\EAC Rip\Brian Simpson - Closer Still\Brian Simpson - Closer Still - 09 in Motion.wav
Peak level 96.4 %
Track quality 100.0 %
Test CRC 2C4EACB0
Copy CRC 2C4EACB0
Copy OK
Track 10
Filename C:\EAC Rip\Brian Simpson - Closer Still\Brian Simpson - Closer Still - 10 Morningh Glories.wav
Peak level 93.1 %
Track quality 100.0 %
Test CRC 738DE33E
Copy CRC 738DE33E
Copy OK
Track 11
Filename C:\EAC Rip\Brian Simpson - Closer Still\Brian Simpson - Closer Still - 11 Lake Shore Drive.wav
Peak level 98.1 %
Track quality 100.0 %
Test CRC C8F52841
Copy CRC C8F52841
Copy OK
Track 12
Filename C:\EAC Rip\Brian Simpson - Closer Still\Brian Simpson - Closer Still - 12 Armani B..wav
Peak level 98.9 %
Track quality 100.0 %
Test CRC CC463984
Copy CRC CC463984
Copy OK
No errors occured
End of status report
 
Audiochecker log
AUDIOCHECKER v2.0 beta (build 457) - by Dester - opdester@freemail.hu
~~~~~~~~~~~~~~~~~~~~~~~~~~~~~~~~~~
-=== DO NOT EDIT THIS FILE! ===-
Path: ...\Brian Simpson - Closer Still (1995)
01 -=- Brian Simpson - Closer Still - 01 Because of Love.flac -=- CDDA (100%)
02 -=- Brian Simpson - Closer Still - 02 Closer Still.flac -=- CDDA (100%)
03 -=- Brian Simpson - Closer Still - 03 April.flac -=- CDDA (100%)
04 -=- Brian Simpson - Closer Still - 04 Hidden Pleasures.flac -=- CDDA (99%)
05 -=- Brian Simpson - Closer Still - 05 Midnight Crazies.flac -=- CDDA (100%)
06 -=- Brian Simpson - Closer Still - 06 Brazilia.flac -=- CDDA (100%)
07 -=- Brian Simpson - Closer Still - 07 Someone Just Like You.flac -=- CDDA (100%)
08 -=- Brian Simpson - Closer Still - 08 Your Smile.flac -=- CDDA (100%)
09 -=- Brian Simpson - Closer Still - 09 in Motion.flac -=- CDDA (100%)
10 -=- Brian Simpson - Closer Still - 10 Morningh Glories.flac -=- CDDA (100%)
11 -=- Brian Simpson - Closer Still - 11 Lake Shore Drive.flac -=- CDDA (100%)
12 -=- Brian Simpson - Closer Still - 12 Armani B..flac -=- CDDA (100%)
Summary 99,92% CDDA
263968964
(Smooth Jazz) Brian Simpson It's All Good - 2005, APE (image + .cue), lossless
Приватный:
Нет (DHT включён)
Размер:
324.83 Мб (340,605,472 байт) » файлов: 18
Участники:
0 раздают, 0 качают (0 участников всего)
Внешние участники:
--- [ Обновить ]
12:02
15
Нет комментариев. Ваш будет первым!