Поиск

(Smooth Jazz) Peter White - Reflections - 1994, FLAC (tracks)

Треклист:
Peter White - Reflections
Жанр: Smooth Jazz
Год выпуска: 1994
Формат: FLAC (tracks)
Количество треков: 10
Продолжительность: 46:35
Релизер: Jiggero
Weblink: http://www.peterwhite.com/
Трэклист:
01 • 05:09 • Peter White - Could It Be I'm Falling in Love • 34,65 Mb • 941 Kbit/s
02 • 05:37 • Peter White - Never Gonna Give You Up • 39,09 Mb • 974 Kbit/s
03 • 04:57 • Peter White - Lets Stay Together • 33,50 Mb • 946 Kbit/s
04 • 04:29 • Peter White - The Closer I Get to You • 27,26 Mb • 851 Kbit/s
05 • 04:51 • Peter White - Walk on By • 33,88 Mb • 976 Kbit/s
06 • 05:08 • Peter White - Will You Still Love Me Tomorrow • 34,57 Mb • 942 Kbit/s
07 • 02:57 • Peter White - My Cherie Amour • 17,77 Mb • 841 Kbit/s
08 • 05:18 • Peter White - Wake Up Everybody • 37,07 Mb • 977 Kbit/s
09 • 04:58 • Peter White - No Woman No Cry • 33,66 Mb • 949 Kbit/s
10 • 03:12 • Peter White - How Deep Is Your Love • 18,27 Mb • 799 Kbit/s
 
EAC Log
EAC extraction logfile from 8. May 2008, 22:05 for CD
Peter White / Reflections
Used drive : PIONEER DVD-RW DVR-110D Adapter: 0 ID: 0
Read mode : Secure with NO C2, accurate stream, disable cache
Read offset correction : 48
Overread into Lead-In and Lead-Out : No
Used output format : C:\Program Files\FLAC\flac.exe (User Defined Encoder)
320 kBit/s
Additional command line options : -T "artist=%a" -T "title=%t" -T "album=%g" -T "date=%y" -T "tracknumber=%n" -T "genre=%m" %s -8
Other options :
Fill up missing offset samples with silence : Yes
Delete leading and trailing silent blocks : No
Installed external ASPI interface
Track 1
Filename C:\EAC Rip\Peter White - Reflections\Peter White - Reflections - 01 Could It Be I'm Falling in Love.wav
Peak level 97.9 %
Track quality 100.0 %
Test CRC E543EC68
Copy CRC E543EC68
Copy OK
Track 2
Filename C:\EAC Rip\Peter White - Reflections\Peter White - Reflections - 02 Never Gonna Give You Up.wav
Peak level 99.9 %
Track quality 100.0 %
Test CRC 8518ACE7
Copy CRC 8518ACE7
Copy OK
Track 3
Filename C:\EAC Rip\Peter White - Reflections\Peter White - Reflections - 03 Lets Stay Together.wav
Peak level 98.3 %
Track quality 100.0 %
Test CRC 1CC82DF9
Copy CRC 1CC82DF9
Copy OK
Track 4
Filename C:\EAC Rip\Peter White - Reflections\Peter White - Reflections - 04 The Closer I Get to You.wav
Peak level 100.0 %
Track quality 100.0 %
Test CRC 77924F44
Copy CRC 77924F44
Copy OK
Track 5
Filename C:\EAC Rip\Peter White - Reflections\Peter White - Reflections - 05 Walk on By.wav
Peak level 100.0 %
Track quality 100.0 %
Test CRC 8719EC0C
Copy CRC 8719EC0C
Copy OK
Track 6
Filename C:\EAC Rip\Peter White - Reflections\Peter White - Reflections - 06 Will You Still Love Me Tomorrow.wav
Peak level 99.0 %
Track quality 100.0 %
Test CRC F95187A9
Copy CRC F95187A9
Copy OK
Track 7
Filename C:\EAC Rip\Peter White - Reflections\Peter White - Reflections - 07 My Cherie Amour.wav
Peak level 91.8 %
Track quality 100.0 %
Test CRC 78BFBB1F
Copy CRC 78BFBB1F
Copy OK
Track 8
Filename C:\EAC Rip\Peter White - Reflections\Peter White - Reflections - 08 Wake Up Everybody.wav
Peak level 100.0 %
Track quality 100.0 %
Test CRC 40ED3D7D
Copy CRC 40ED3D7D
Copy OK
Track 9
Filename C:\EAC Rip\Peter White - Reflections\Peter White - Reflections - 09 No Woman No Cry.wav
Peak level 100.0 %
Track quality 99.9 %
Test CRC B37CC9C0
Copy CRC B37CC9C0
Copy OK
Track 10
Filename C:\EAC Rip\Peter White - Reflections\Peter White - Reflections - 10 How Deep Is Your Love.wav
Peak level 97.2 %
Track quality 100.0 %
Test CRC 67B8E195
Copy CRC 67B8E195
Copy OK
No errors occured
End of status report
Приватный:
Нет (DHT включён)
Размер:
314.81 Мб (330,101,746 байт) » файлов: 15
Участники:
0 раздают, 0 качают (0 участников всего)
Внешние участники:
5 раздают, 1 качают (6 участников всего) [ Обновить ]
12:51
15
Нет комментариев. Ваш будет первым!