Поиск

(Smooth Jazz) Norman Brown - After The Storm - 1994, FLAC (tracks)

Треклист:
Norman Brown - After The Storm
Жанр: Smooth Jazz
Год выпуска: 1994
Формат: FLAC (tracks)
Количество треков: 12
Продолжительность: 1:00:12
Релизер: Jiggero
Weblink: http://www.normanbrown.com/home.htm
Tracklist:
01 " 05:15 " Norman Brown - Take Me There " 35,61 Mb " 950 Kbit/s
02 " 04:46 " Norman Brown - After The Storm " 30,30 Mb " 890 Kbit/s
03 " 04:45 " Norman Brown - That's The Way Love Goes " 27,67 Mb " 813 Kbit/s
04 " 05:23 " Norman Brown - Any Love " 34,97 Mb " 908 Kbit/s
05 " 06:31 " Norman Brown - Lydian " 42,74 Mb " 916 Kbit/s
06 " 05:22 " Norman Brown - For The Love of You " 36,05 Mb " 940 Kbit/s
07 " 05:22 " Norman Brown - Trashman " 36,52 Mb " 951 Kbit/s
08 " 04:50 " Norman Brown - It Costs To Love " 31,04 Mb " 899 Kbit/s
09 " 05:29 " Norman Brown - Let's Come Together " 37,98 Mb " 968 Kbit/s
10 " 02:23 " Norman Brown - Acoustic Time " 15,06 Mb " 881 Kbit/s
11 " 05:33 " Norman Brown - El Dulce Sol " 37,02 Mb " 933 Kbit/s
12 " 04:33 " Norman Brown - Family " 29,05 Mb " 891 Kbit/s
 
EAC Log
EAC extraction logfile from 8. May 2008, 21:46 for CD
Norman Brown / After The Storm
Used drive : PIONEER DVD-RW DVR-110D Adapter: 0 ID: 0
Read mode : Secure with NO C2, accurate stream, disable cache
Read offset correction : 48
Overread into Lead-In and Lead-Out : No
Used output format : C:\Program Files\FLAC\flac.exe (User Defined Encoder)
320 kBit/s
Additional command line options : -T "artist=%a" -T "title=%t" -T "album=%g" -T "date=%y" -T "tracknumber=%n" -T "genre=%m" %s -8
Other options :
Fill up missing offset samples with silence : Yes
Delete leading and trailing silent blocks : No
Installed external ASPI interface
Track 1
Filename C:\EAC Rip\Norman Brown - After The Storm\Norman Brown - After The Storm - 01 Take Me There.wav
Peak level 99.6 %
Track quality 100.0 %
Test CRC 50906563
Copy CRC 50906563
Copy OK
Track 2
Filename C:\EAC Rip\Norman Brown - After The Storm\Norman Brown - After The Storm - 02 After The Storm.wav
Peak level 98.8 %
Track quality 100.0 %
Test CRC 9E470D4B
Copy CRC 9E470D4B
Copy OK
Track 3
Filename C:\EAC Rip\Norman Brown - After The Storm\Norman Brown - After The Storm - 03 That's The Way Love Goes.wav
Peak level 100.0 %
Track quality 100.0 %
Test CRC DC15C1B2
Copy CRC DC15C1B2
Copy OK
Track 4
Filename C:\EAC Rip\Norman Brown - After The Storm\Norman Brown - After The Storm - 04 Any Love.wav
Peak level 100.0 %
Track quality 100.0 %
Test CRC 5DF19C60
Copy CRC 5DF19C60
Copy OK
Track 5
Filename C:\EAC Rip\Norman Brown - After The Storm\Norman Brown - After The Storm - 05 Lydian.wav
Peak level 100.0 %
Track quality 100.0 %
Test CRC BCDBF12D
Copy CRC BCDBF12D
Copy OK
Track 6
Filename C:\EAC Rip\Norman Brown - After The Storm\Norman Brown - After The Storm - 06 For The Love of You.wav
Peak level 100.0 %
Track quality 99.9 %
Test CRC D0C8EC4E
Copy CRC D0C8EC4E
Copy OK
Track 7
Filename C:\EAC Rip\Norman Brown - After The Storm\Norman Brown - After The Storm - 07 Trashman.wav
Peak level 99.6 %
Track quality 100.0 %
Test CRC CE909AC1
Copy CRC CE909AC1
Copy OK
Track 8
Filename C:\EAC Rip\Norman Brown - After The Storm\Norman Brown - After The Storm - 08 It Costs To Love.wav
Peak level 95.5 %
Track quality 100.0 %
Test CRC C94738E2
Copy CRC C94738E2
Copy OK
Track 9
Filename C:\EAC Rip\Norman Brown - After The Storm\Norman Brown - After The Storm - 09 Let's Come Together.wav
Peak level 98.9 %
Track quality 100.0 %
Test CRC 72C1F6A8
Copy CRC 72C1F6A8
Copy OK
Track 10
Filename C:\EAC Rip\Norman Brown - After The Storm\Norman Brown - After The Storm - 10 Acoustic Time.wav
Peak level 94.9 %
Track quality 99.9 %
Test CRC 5C7F15A9
Copy CRC 5C7F15A9
Copy OK
Track 11
Filename C:\EAC Rip\Norman Brown - After The Storm\Norman Brown - After The Storm - 11 El Dulce Sol.wav
Peak level 100.0 %
Track quality 99.9 %
Test CRC 7505E865
Copy CRC 7505E865
Copy OK
Track 12
Filename C:\EAC Rip\Norman Brown - After The Storm\Norman Brown - After The Storm - 12 Family.wav
Peak level 99.5 %
Track quality 100.0 %
Test CRC 285599B1
Copy CRC 285599B1
Copy OK
No errors occured
End of status report
Приватный:
Нет (DHT включён)
Размер:
399.04 Мб (418,421,176 байт) » файлов: 17
Участники:
0 раздают, 0 качают (0 участников всего)
Внешние участники:
2 раздают, 1 качают (3 участников всего) [ Обновить ]
12:54
6
Нет комментариев. Ваш будет первым!