Поиск

(Smooth Jazz) Michael Manson - Just Feelin It - 2006, flac (tracks + .cue) , lossless

(Smooth Jazz) Michael Manson - Just Feelin It - 2006, flac (tracks + .cue) , lossless
Треклист:
Michael Manson - Just Feelin It
Страна: USA
Жанр: Smooth Jazz
Год выпуска: 2006
Формат:FLAC (tracks)
Битрейт аудио: lossless
Продолжительность: 57:53:37
Трэклист:
01. Coming Right At ya (5:18)
02. It's the Way She Moves (5:20)
03. Just Feelin' It (3:51)
04. There's Nothing Better Than Love (6:08)
05. Way Back When (4:37)
06. Another Chance (6:17)
07. In Flight (4:45)
08. Still Thinking About You (5:27)
09. The Bassment (5:55)
10. Lovely Day (5:02)
11. Tis So Sweet (4:47)
12. The Bassment (Reprise) (1:34)
Доп. информация: Label: 215 Records
Мой личный потрековый рип с оригинального диска
 
скрытый текст
~ Personnel / Credits ~
Michael Manson – Producer, Piccolo Bass, Tenor Bass
Alex Al – Bass
Craig Bauer – Mixing
Stephen Berry – Trombone
John Blasucci – Keyboards
Larry Bowen – Trumpet
Rick Braun – Trumpet
Paul Rayner Brown – Mixing
Teddy Campbell – Drums
Lenny Castro – Percussion
Brian Culbertson – Keyboards, Programming, Producer
Jerry DiMuzio – Saxophone
George Duke – Piano
Maurice Fitzgerald – Bass
Ray Fuller – Guitar (Rhythm)
Tim Gant – Keyboards
Chris Harris – Vocals
Keith Henderson – Guitar
Paul Jackson, Jr. – Guitar
Gerey Johnson – Guitar
Dave Kochanski – Keyboards, Programming, Producer
Michael Logan – Piano, Keyboards, Producer, Fender Rhodes
Jeff Lorber – Piano, Programming, Producer
Stephen Lu – Keyboards, Programming, Producer
Chris Miskel – Drums, Programming
Khari Parker – Drums
Kevin Randolph – Keyboards
Nelson Rangell – Saxophone
Michael Ripoll – Guitar
Oscar Seaton – Cymbals, Drums, Hi Hat
Louie Stockwell – Saxophone
Steve Weeder – Mixing
Kirk Whalum – Saxophone, Vocals
Pharez Whitted – Trumpet
Joey Woolfalk – Guitar
 
Отчёт EAC
xact Audio Copy V0.99 prebeta 5 from 4. May 2009
Отчёт EAC об извлечении, выполненном 10. мая 2010, 13:39
Michael Manson / Just Feelin It
Дисковод: Optiarc DVD RW AD-7173A Adapter: 0 ID: 0
Режим чтения : Достоверность
Использование точного потока : Да
Отключение кэша аудио : Да
Использование указателей C2 : Нет
Коррекция смещения при чтении : 48
Способность читать области Lead-in и Lead-out : Нет
Заполнение пропущенных сэмплов тишиной : Да
Удаление блоков с тишиной в начале и конце : Нет
При вычислениях CRC использовались нулевые сэмплы : Да
Интерфейс : Установленный внешний ASPI-интерфейс
Обработка зазоров : Не обнаружено, добавлено к предыдущему треку
Выходной формат : Внутренние WAV-операции
Формат сэмплов : 44.100 Гц; 16 бит; стерео
TOC извлечённого CD
Трек | Старт | Длительность | Начальный сектор | Конечный сектор
---------------------------------------------------------------------
1 | 0:00.00 | 5:18.15 | 0 | 23864
2 | 5:18.15 | 5:20.56 | 23865 | 47920
3 | 10:38.71 | 3:51.64 | 47921 | 65309
4 | 14:30.60 | 6:08.22 | 65310 | 92931
5 | 20:39.07 | 4:37.61 | 92932 | 113767
6 | 25:16.68 | 6:17.23 | 113768 | 142065
7 | 31:34.16 | 4:45.31 | 142066 | 163471
8 | 36:19.47 | 5:27.09 | 163472 | 188005
9 | 41:46.56 | 5:55.07 | 188006 | 214637
10 | 47:41.63 | 5:02.14 | 214638 | 237301
11 | 52:44.02 | 4:47.35 | 237302 | 258861
12 | 57:31.37 | 1:34.31 | 258862 | 265942
Трек 1
Имя файла C:\Documents and Settings\Sanches\Мои документы\Новая папка\Новая папка (2)\Новая папка\01. Coming Right At ya.wav
Пиковый уровень 98.8 %
Качество трека 100.0 %
CRC копии 32CE0468
Трек не обнаружен в базе AccurateRip
Копирование... OK
Трек 2
Имя файла C:\Documents and Settings\Sanches\Мои документы\Новая папка\Новая папка (2)\Новая папка\02. It's the Way She Moves.wav
Пиковый уровень 98.8 %
Качество трека 100.0 %
CRC копии 1EC9987A
Трек не обнаружен в базе AccurateRip
Копирование... OK
Трек 3
Имя файла C:\Documents and Settings\Sanches\Мои документы\Новая папка\Новая папка (2)\Новая папка\03. Just Feelin' It.wav
Пиковый уровень 98.8 %
Качество трека 100.0 %
CRC копии 3B6B052A
Трек не обнаружен в базе AccurateRip
Копирование... OK
Трек 4
Имя файла C:\Documents and Settings\Sanches\Мои документы\Новая папка\Новая папка (2)\Новая папка\04. There's Nothing Better Than Love.wav
Пиковый уровень 98.8 %
Качество трека 99.9 %
CRC копии 6FCA5C6B
Трек не обнаружен в базе AccurateRip
Копирование... OK
Трек 5
Имя файла C:\Documents and Settings\Sanches\Мои документы\Новая папка\Новая папка (2)\Новая папка\05. Way Back When.wav
Пиковый уровень 98.8 %
Качество трека 100.0 %
CRC копии 42FABF59
Трек не обнаружен в базе AccurateRip
Копирование... OK
Трек 6
Имя файла C:\Documents and Settings\Sanches\Мои документы\Новая папка\Новая папка (2)\Новая папка\06. Another Chance.wav
Пиковый уровень 98.8 %
Качество трека 100.0 %
CRC копии 15DD0FF5
Трек не обнаружен в базе AccurateRip
Копирование... OK
Трек 7
Имя файла C:\Documents and Settings\Sanches\Мои документы\Новая папка\Новая папка (2)\Новая папка\07. In Flight.wav
Пиковый уровень 98.8 %
Качество трека 100.0 %
CRC копии 14370BDF
Трек не обнаружен в базе AccurateRip
Копирование... OK
Трек 8
Имя файла C:\Documents and Settings\Sanches\Мои документы\Новая папка\Новая папка (2)\Новая папка\08. Still Thinking About You.wav
Пиковый уровень 98.8 %
Качество трека 99.9 %
CRC копии B623244B
Трек не обнаружен в базе AccurateRip
Копирование... OK
Трек 9
Имя файла C:\Documents and Settings\Sanches\Мои документы\Новая папка\Новая папка (2)\Новая папка\09. The Bassment.wav
Пиковый уровень 98.8 %
Качество трека 100.0 %
CRC копии 240F63AA
Трек не обнаружен в базе AccurateRip
Копирование... OK
Трек 10
Имя файла C:\Documents and Settings\Sanches\Мои документы\Новая папка\Новая папка (2)\Новая папка\10. Lovely Day.wav
Пиковый уровень 98.8 %
Качество трека 99.9 %
CRC копии A42061A3
Трек не обнаружен в базе AccurateRip
Копирование... OK
Трек 11
Имя файла C:\Documents and Settings\Sanches\Мои документы\Новая папка\Новая папка (2)\Новая папка\11. Tis So Sweet.wav
Пиковый уровень 98.4 %
Качество трека 100.0 %
CRC копии 59A231E2
Трек не обнаружен в базе AccurateRip
Копирование... OK
Трек 12
Имя файла C:\Documents and Settings\Sanches\Мои документы\Новая папка\Новая папка (2)\Новая папка\12. The Bassment (Reprise).wav
Пиковый уровень 98.8 %
Качество трека 100.0 %
CRC копии 820D8DDD
Трек не обнаружен в базе AccurateRip
Копирование... OK
Ни одного трека нет в базе AccurateRip
Ошибок не произошло
Конец отчёта
 
CUE
REM GENRE Jazz
REM DATE 2006
REM DISCID 9E0DD90C
REM COMMENT "ExactAudioCopy v0.99pb5"
PERFORMER "Michael Manson"
TITLE "Just Feelin It"
FILE "Michael Manson - Just Feelin It.wav" WAVE
TRACK 01 AUDIO
TITLE "Coming Right At ya"
PERFORMER "Michael Manson"
INDEX 01 00:00:00
TRACK 02 AUDIO
TITLE "It's the Way She Moves"
PERFORMER "Michael Manson"
INDEX 01 05:18:15
TRACK 03 AUDIO
TITLE "Just Feelin' It"
PERFORMER "Michael Manson"
INDEX 01 10:38:71
TRACK 04 AUDIO
TITLE "There's Nothing Better Than Love"
PERFORMER "Michael Manson"
INDEX 01 14:30:60
TRACK 05 AUDIO
TITLE "Way Back When "
PERFORMER "Michael Manson"
INDEX 01 20:39:07
TRACK 06 AUDIO
TITLE "Another Chance "
PERFORMER "Michael Manson"
INDEX 01 25:16:68
TRACK 07 AUDIO
TITLE "In Flight"
PERFORMER "Michael Manson"
INDEX 01 31:34:16
TRACK 08 AUDIO
TITLE "Still Thinking About You"
PERFORMER "Michael Manson"
INDEX 01 36:19:47
TRACK 09 AUDIO
TITLE "The Bassment"
PERFORMER "Michael Manson"
INDEX 01 41:46:56
TRACK 10 AUDIO
TITLE "Lovely Day"
PERFORMER "Michael Manson"
INDEX 01 47:41:63
TRACK 11 AUDIO
TITLE "Tis So Sweet "
PERFORMER "Michael Manson"
INDEX 01 52:44:02
TRACK 12 AUDIO
TITLE "The Bassment (Reprise)"
PERFORMER "Michael Manson"
INDEX 01 57:31:37
Скачивание доступно после регистрации!!
Приватный:
Нет (DHT включён)
Размер:
394.16 Мб (413,309,977 байт) » файлов: 15
Участники:
0 раздают, 0 качают (0 участников всего)
Внешние участники:
3 раздают, 1 качают (4 участников всего) [ Обновить ]
11:23
7
Нет комментариев. Ваш будет первым!