Поиск

(Smooth Jazz) Luis Salinas - Rosario - 2001, FLAC (image + .cue), lossless

(Smooth Jazz) Luis Salinas - Rosario - 2001, FLAC (image + .cue), lossless
Треклист:
Luis Salinas - Rosario
Жанр: Smooth Jazz
Год выпуска: 2001
Формат: FLAC (image + .cue)
Битрейт аудио: lossless
Продолжительность: 64'11
Трэклист:
1. Todavía Quedan Cosas
2. Mi Soledad
3. Cando/Clima
4. Rock Cha Cha
5. Desde Lejos
6. Muy Latino
7. Rosario
8. Vuelvo
9. Mar
10. Funk en Sol
11. Mañana Estarás Bien
12. Vamos Por Ahí
Доп. информация:
 
EAC-Log
Exact Audio Copy V0.99 prebeta 3 from 28. July 2007
EAC extraction logfile from 6. October 2007, 14:25
Luis Salinas / Rosario
Used drive : HL-DT-STDVDRAM GSA-H44N Adapter: 4 ID: 0
Read mode : Secure
Utilize accurate stream : Yes
Defeat audio cache : Yes
Make use of C2 pointers : No
Read offset correction : 667
Overread into Lead-In and Lead-Out : No
Fill up missing offset samples with silence : Yes
Delete leading and trailing silent blocks : No
Null samples used in CRC calculations : Yes
Used interface : Installed external ASPI interface
Used output format : Internal WAV Routines
Sample format : 44.100 Hz; 16 Bit; Stereo
TOC of the extracted CD
Track | Start | Length | Start sector | End sector
---------------------------------------------------------
1 | 0:00.00 | 5:17.25 | 0 | 23799
2 | 5:17.25 | 5:31.11 | 23800 | 48635
3 | 10:48.36 | 5:47.15 | 48636 | 74675
4 | 16:35.51 | 4:15.65 | 74676 | 93865
5 | 20:51.41 | 5:50.36 | 93866 | 120151
6 | 26:42.02 | 6:54.03 | 120152 | 151204
7 | 33:36.05 | 3:59.15 | 151205 | 169144
8 | 37:35.20 | 4:06.28 | 169145 | 187622
9 | 41:41.48 | 5:18.17 | 187623 | 211489
10 | 46:59.65 | 4:50.73 | 211490 | 233312
11 | 51:50.63 | 5:23.59 | 233313 | 257596
12 | 57:14.47 | 6:56.29 | 257597 | 288825
Range status and errors
Selected range
Filename E:\CD-Rip\Luis Salinas - Rosario.wav
Peak level 88.5 %
Range quality 100.0 %
Test CRC BCD4ADFE
Copy CRC BCD4ADFE
Copy OK
No errors occurred
End of status report
 
CUE-File
REM GENRE Smooth Jazz
REM DATE 2001
PERFORMER "Luis Salinas"
TITLE "Rosario"
REM REPLAYGAIN_ALBUM_GAIN -6.74 dB
REM REPLAYGAIN_ALBUM_PEAK 0.884979
FILE "Luis Salinas '91.flac" WAVE
TRACK 01 AUDIO
TITLE "Todavia Quedan Cosas"
REM REPLAYGAIN_TRACK_GAIN -7.51 dB
REM REPLAYGAIN_TRACK_PEAK 0.875092
INDEX 01 00:00:00
TRACK 02 AUDIO
TITLE "Mi Soledad"
REM REPLAYGAIN_TRACK_GAIN -5.54 dB
REM REPLAYGAIN_TRACK_PEAK 0.875122
INDEX 01 05:17:25
TRACK 03 AUDIO
TITLE "Cando-clima"
REM REPLAYGAIN_TRACK_GAIN -5.01 dB
REM REPLAYGAIN_TRACK_PEAK 0.875153
INDEX 01 10:48:36
TRACK 04 AUDIO
TITLE "Rock Cha Cha"
REM REPLAYGAIN_TRACK_GAIN -7.21 dB
REM REPLAYGAIN_TRACK_PEAK 0.772491
INDEX 01 16:35:51
TRACK 05 AUDIO
TITLE "Desde Lejos"
REM REPLAYGAIN_TRACK_GAIN -2.93 dB
REM REPLAYGAIN_TRACK_PEAK 0.779968
INDEX 01 20:51:41
TRACK 06 AUDIO
TITLE "Muy Latino"
REM REPLAYGAIN_TRACK_GAIN -5.75 dB
REM REPLAYGAIN_TRACK_PEAK 0.727905
INDEX 01 26:42:02
TRACK 07 AUDIO
TITLE "Rosario"
REM REPLAYGAIN_TRACK_GAIN -6.46 dB
REM REPLAYGAIN_TRACK_PEAK 0.860931
INDEX 01 33:36:05
TRACK 08 AUDIO
TITLE "Vuelvo"
REM REPLAYGAIN_TRACK_GAIN -6.31 dB
REM REPLAYGAIN_TRACK_PEAK 0.884979
INDEX 01 37:35:20
TRACK 09 AUDIO
TITLE "Mar"
REM REPLAYGAIN_TRACK_GAIN -5.27 dB
REM REPLAYGAIN_TRACK_PEAK 0.884979
INDEX 01 41:41:48
TRACK 10 AUDIO
TITLE "Funk En Sol"
REM REPLAYGAIN_TRACK_GAIN -8.34 dB
REM REPLAYGAIN_TRACK_PEAK 0.868500
INDEX 01 46:59:65
TRACK 11 AUDIO
TITLE "Manana Estaras Bien"
REM REPLAYGAIN_TRACK_GAIN -5.70 dB
REM REPLAYGAIN_TRACK_PEAK 0.753510
INDEX 01 51:50:63
TRACK 12 AUDIO
TITLE "Vamos Por Ahi"
REM REPLAYGAIN_TRACK_GAIN -7.41 dB
REM REPLAYGAIN_TRACK_PEAK 0.862244
INDEX 01 57:14:47
Скачивание доступно после регистрации!!
Приватный:
Нет (DHT включён)
Размер:
397.79 Мб (417,113,953 байт) » файлов: 5
Участники:
0 раздают, 0 качают (0 участников всего)
Внешние участники:
3 раздают, 1 качают (4 участников всего) [ Обновить ]
11:09
14
Нет комментариев. Ваш будет первым!