Поиск

(Smooth Jazz) Luis Salinas - Ahi Va - 2003, FLAC (image + .cue), lossless

(Smooth Jazz) Luis Salinas - Ahi Va - 2003, FLAC (image + .cue), lossless
Треклист:
Luis Salinas - Ahi Va
Жанр: Smooth Jazz
Год выпуска: 2003
Формат: FLAC (image + .cue)
Битрейт аудио: lossless
Продолжительность: 65'39
Трэклист:
1. Dulce
2. Funky en Si Menor
3. Ahí Va
4. Allá Lejos
5. Bolero
6. Salsita
7. Estrella del Fin
8. Amanece
9. Noche
10. Candombes
11. Contigo en la Distancia
12. Latin Beeboop
13. RTM Blues
Доп. информация:
 
EAC-Log
Exact Audio Copy V0.99 prebeta 3 from 28. July 2007
EAC extraction logfile from 28. September 2007, 22:57
Luis Salinas / Ahi Va
Used drive : HL-DT-STDVDRAM GSA-H10A Adapter: 4 ID: 0
Read mode : Secure
Utilize accurate stream : Yes
Defeat audio cache : Yes
Make use of C2 pointers : No
Read offset correction : 667
Overread into Lead-In and Lead-Out : No
Fill up missing offset samples with silence : Yes
Delete leading and trailing silent blocks : No
Null samples used in CRC calculations : Yes
Used interface : Installed external ASPI interface
Used output format : Internal WAV Routines
Sample format : 44.100 Hz; 16 Bit; Stereo
TOC of the extracted CD
Track | Start | Length | Start sector | End sector
---------------------------------------------------------
1 | 0:00.00 | 6:29.55 | 0 | 29229
2 | 6:29.55 | 3:42.72 | 29230 | 45951
3 | 10:12.52 | 6:30.54 | 45952 | 75255
4 | 16:43.31 | 5:22.13 | 75256 | 99418
5 | 22:05.44 | 4:53.45 | 99419 | 121438
6 | 26:59.14 | 3:41.19 | 121439 | 138032
7 | 30:40.33 | 5:57.46 | 138033 | 164853
8 | 36:38.04 | 4:21.67 | 164854 | 184495
9 | 40:59.71 | 5:14.72 | 184496 | 208117
10 | 46:14.68 | 8:45.02 | 208118 | 247494
11 | 54:59.70 | 5:04.38 | 247495 | 270332
12 | 60:04.33 | 3:03.38 | 270333 | 284095
13 | 63:07.71 | 2:30.69 | 284096 | 295414
Range status and errors
Selected range
Filename E:\CD-Rip\Luis Salinas - Ahi Va.wav
Peak level 100.0 %
Range quality 100.0 %
Copy CRC 6763295E
Copy OK
No errors occurred
AccurateRip summary
Track 1 not present in database
Track 2 not present in database
Track 3 not present in database
Track 4 not present in database
Track 5 not present in database
Track 6 not present in database
Track 7 not present in database
Track 8 not present in database
Track 9 not present in database
Track 10 not present in database
Track 11 not present in database
Track 12 not present in database
Track 13 not present in database
None of the tracks are present in the AccurateRip database
End of status report
 
CUE-File
REM GENRE Smooth Jazz
REM DATE 2003
REM DISCID 9E0F620D
REM COMMENT ExactAudioCopy v0.99pb3
PERFORMER "Luis Salinas"
TITLE "Ahi Va"
REM REPLAYGAIN_ALBUM_GAIN -3.13 dB
REM REPLAYGAIN_ALBUM_PEAK 1.000000
FILE "Luis Salinas '03.flac" WAVE
TRACK 01 AUDIO
TITLE "Dulce"
REM REPLAYGAIN_TRACK_GAIN -3.51 dB
REM REPLAYGAIN_TRACK_PEAK 0.940826
INDEX 01 00:00:00
TRACK 02 AUDIO
TITLE "Funky En Si Menor"
REM REPLAYGAIN_TRACK_GAIN -4.60 dB
REM REPLAYGAIN_TRACK_PEAK 0.988556
INDEX 00 06:27:55
INDEX 01 06:29:55
TRACK 03 AUDIO
TITLE "Alla Lejos"
REM REPLAYGAIN_TRACK_GAIN -3.18 dB
REM REPLAYGAIN_TRACK_PEAK 0.933289
INDEX 00 10:09:52
INDEX 01 10:12:52
TRACK 04 AUDIO
TITLE "Ahi Va"
REM REPLAYGAIN_TRACK_GAIN -2.96 dB
REM REPLAYGAIN_TRACK_PEAK 1.000000
INDEX 00 16:40:31
INDEX 01 16:43:31
TRACK 05 AUDIO
TITLE "Bolero"
REM REPLAYGAIN_TRACK_GAIN -1.00 dB
REM REPLAYGAIN_TRACK_PEAK 0.944794
INDEX 00 22:01:44
INDEX 01 22:05:44
TRACK 06 AUDIO
TITLE "Salsita"
REM REPLAYGAIN_TRACK_GAIN -1.38 dB
REM REPLAYGAIN_TRACK_PEAK 0.988586
INDEX 00 26:57:14
INDEX 01 26:59:14
TRACK 07 AUDIO
TITLE "La Estrella Del Fin"
REM REPLAYGAIN_TRACK_GAIN -3.19 dB
REM REPLAYGAIN_TRACK_PEAK 0.974884
INDEX 00 30:37:33
INDEX 01 30:40:33
TRACK 08 AUDIO
TITLE "Amanece"
REM REPLAYGAIN_TRACK_GAIN -3.24 dB
REM REPLAYGAIN_TRACK_PEAK 0.920105
INDEX 00 36:35:04
INDEX 01 36:38:04
TRACK 09 AUDIO
TITLE "Noche"
REM REPLAYGAIN_TRACK_GAIN -2.93 dB
REM REPLAYGAIN_TRACK_PEAK 0.982086
INDEX 00 40:58:71
INDEX 01 40:59:71
TRACK 10 AUDIO
TITLE "Candombes"
REM REPLAYGAIN_TRACK_GAIN -2.95 dB
REM REPLAYGAIN_TRACK_PEAK 0.964417
INDEX 00 46:11:68
INDEX 01 46:14:68
TRACK 11 AUDIO
TITLE "Contigo En La Distancia"
REM REPLAYGAIN_TRACK_GAIN -1.25 dB
REM REPLAYGAIN_TRACK_PEAK 0.927063
INDEX 01 54:59:70
TRACK 12 AUDIO
TITLE "Latin Beeboop"
REM REPLAYGAIN_TRACK_GAIN -0.77 dB
REM REPLAYGAIN_TRACK_PEAK 0.988556
INDEX 01 60:04:33
TRACK 13 AUDIO
TITLE "Rtm Blues"
REM REPLAYGAIN_TRACK_GAIN -4.53 dB
REM REPLAYGAIN_TRACK_PEAK 0.983154
INDEX 01 63:07:71
Скачивание доступно после регистрации!!
Приватный:
Нет (DHT включён)
Размер:
344.70 Мб (361,445,864 байт) » файлов: 5
Участники:
0 раздают, 0 качают (0 участников всего)
Внешние участники:
--- [ Обновить ]
11:11
5
Нет комментариев. Ваш будет первым!