Поиск

(Smooth Jazz) John Klemmer - Waterfalls - 1972, APE (image+.cue), lossless

(Smooth Jazz) John Klemmer - Waterfalls - 1972, APE (image+.cue), lossless
Треклист:
John Klemmer / Waterfalls
Жанр: Smooth Jazz
Страна-производитель диска: usa
Год издания диска: 1972
Издатель (лейбл): MCA Records
Номер по каталогу: MCAD 33123
Страна: usa
Аудиокодек: APE (*.ape)
Тип рипа: image+.cue
Битрейт аудио: lossless
Продолжительность: 00:41:09
Источник (релизер): barin99
Наличие сканов в содержимом раздачи: да
Треклист:
1. Prelude I
2. Waterfall
3. Utopia: Man's Dream, Part 1
4. Utopia: Man's Dream, Part 2
5. There's Some Light Ahead
6. Centifugal Force
7. Prelude II
8. Waterfall II
 
Лог создания рипа
Exact Audio Copy V0.99 prebeta 5 from 4. May 2009
EAC extraction logfile from 25. January 2011, 21:59
John Klemmer / Waterfalls
Used drive : TSSTcorpDVD+-RW TS-U633A Adapter: 0 ID: 1
Read mode : Secure
Utilize accurate stream : Yes
Defeat audio cache : Yes
Make use of C2 pointers : No
Read offset correction : 6
Overread into Lead-In and Lead-Out : No
Fill up missing offset samples with silence : Yes
Delete leading and trailing silent blocks : No
Null samples used in CRC calculations : Yes
Used interface : Native Win32 interface for Win NT & 2000
Used output format : Internal WAV Routines
Sample format : 44.100 Hz; 16 Bit; Stereo
TOC of the extracted CD
Track | Start | Length | Start sector | End sector
---------------------------------------------------------
1 | 0:00.00 | 3:33.52 | 0 | 16026
2 | 3:33.52 | 4:19.43 | 16027 | 35494
3 | 7:53.20 | 8:47.32 | 35495 | 75051
4 | 16:40.52 | 3:52.50 | 75052 | 92501
5 | 20:33.27 | 4:29.03 | 92502 | 112679
6 | 25:02.30 | 5:59.47 | 112680 | 139651
7 | 31:02.02 | 4:02.65 | 139652 | 157866
8 | 35:04.67 | 6:08.30 | 157867 | 185496
Range status and errors
Selected range
Filename C:\_Arc\EAC_Out\John Klemmer - Waterfalls\John Klemmer - Waterfalls.wav
Peak level 83.0 %
Range quality 100.0 %
Copy CRC 06CBFC27
Copy OK
No errors occurred
AccurateRip summary
Track 1 accurately ripped (confidence 1) [B5BE86A3]
Track 2 accurately ripped (confidence 1) [E7DA0E5C]
Track 3 accurately ripped (confidence 1) [84BE23BA]
Track 4 accurately ripped (confidence 1) [9299E54B]
Track 5 accurately ripped (confidence 1) [4355C084]
Track 6 accurately ripped (confidence 1) [812EE56B]
Track 7 accurately ripped (confidence 1) [651B7887]
Track 8 accurately ripped (confidence 1) [ACDEA22F]
All tracks accurately ripped
End of status report
 
Содержание индексной карты (.CUE)
REM GENRE Jazz
REM DATE 1972
REM DISCID 4E09A908
REM COMMENT "ExactAudioCopy v0.99pb5"
PERFORMER "John Klemmer"
TITLE "Waterfalls"
FILE "John Klemmer - Waterfalls.wav" WAVE
TRACK 01 AUDIO
TITLE "Prelude I"
PERFORMER "John Klemmer"
INDEX 01 00:00:00
TRACK 02 AUDIO
TITLE "Waterfall"
PERFORMER "John Klemmer"
INDEX 01 03:33:52
TRACK 03 AUDIO
TITLE "Utopia: Man's Dream, Part 1"
PERFORMER "John Klemmer"
INDEX 01 07:53:20
TRACK 04 AUDIO
TITLE "Utopia: Man's Dream, Part 2"
PERFORMER "John Klemmer"
INDEX 01 16:40:52
TRACK 05 AUDIO
TITLE "There's Some Light Ahead"
PERFORMER "John Klemmer"
INDEX 00 20:31:45
INDEX 01 20:33:27
TRACK 06 AUDIO
TITLE "Centifugal Force"
PERFORMER "John Klemmer"
INDEX 01 25:02:30
TRACK 07 AUDIO
TITLE "Prelude II"
PERFORMER "John Klemmer"
INDEX 01 31:02:02
TRACK 08 AUDIO
TITLE "Waterfall II"
PERFORMER "John Klemmer"
INDEX 01 35:04:67
 
Лог проверки качества
-----------------------
DON'T MODIFY THIS FILE
-----------------------
PERFORMER: auCDtect Task Manager, ver. 1.0.3 B1 build 1.0.3.0
Copyright (c) 2008, 2009 y-soft. All rights reserved
http://y-soft.110mb.com
ANALYZER: auCDtect: CD records authenticity detector, version 0.8.2
Copyright (c) 2004 Oleg Berngardt. All rights reserved.
Copyright (c) 2004 Alexander Djourik. All rights reserved.
FILE: John Klemmer - Waterfalls.ape
Size: 216739024 Hash: D9516013F4BA18C36259154210CE318A Accuracy: -m0
Conclusion: CDDA 100%
Signature: CD80C698901566505B6F7D3FAB89C08F5FB6E486
 
Скриншот спектра частот
 
Об исполнителе (группе)
American jazz saxophonist, composer, producer.
Site - http://johnklemmer.com
 
Об альбоме (сборнике)
Credits
Artwork By [Cover] – Terry Lamb
Artwork By [Liner Design] – Philip Melnick
Engineer – Baker Bigsby
Producer – Ed Michel
Written-by – John Klemmer
Notes
Recorded in performance at the Ash Grove, Los Angeles, June 17 1972 and enchanted at The Village Recorder, Los Angeles June 22 1972.
Original Release 1972.
 
Состав
Bass – Wilton Felder
Drums – Eddie Marshall (2)
Electric Piano [Rhodes] – Mike Nock
Percussion – Victor Feldman
Vocals – Diana Lee
Saxophone [Tenor & Soprano], Other [Echoplex] – John Klemmer
Доп. информация: SMOOTH JAZZ JOHN KLEMMER OFFICIAL VIDEO "WATERFALLS
00:17
783
Нет комментариев. Ваш будет первым!