Поиск

(Smooth Jazz) John Klemmer - Touch (MFSL UDCD 522) - 1975, FLAC (tracks+.cue), lossless

(Smooth Jazz) John Klemmer - Touch (MFSL UDCD 522) - 1975, FLAC (tracks+.cue), lossless
Треклист:
John Klemmer - Touch
Label: ABC Records
Catalog#: MFSL UDCD 522
Format: CD, Album
Country: USA
Released: 1975
Genre: Jazz
Style: Soul-Jazz, Smooth Jazz
Аудио кодек: FLAC
Тип рипа: tracks+.cue
Битрейт аудио: lossless
Продолжительность: 0:48:43
Треклист:
01. Touch (6:52)
02. Glass Dolphins (3:26)
03. Waterwheels (7:08)
04. Free Fall Lover (6:45)
05. Sleeping Eyes (6:55)
06. Body Pulse (5:28)
07. Tone Row Weaver (8:02)
08. Walk With Me My Love And Dream (4:05)
Сканы внутри
Скачал из сети
 
EAC Log
Exact Audio Copy V0.99 prebeta 4 from 23. January 2008
EAC extraction logfile from 9. September 2009, 15:14
John Klemmer / Touch (MFSL UDCD 522)
Used drive : LITE-ON DVDRW SHW-160P6S Adapter: 1 ID: 0
Read mode : Secure
Utilize accurate stream : Yes
Defeat audio cache : Yes
Make use of C2 pointers : No
Read offset correction : 6
Overread into Lead-In and Lead-Out : No
Fill up missing offset samples with silence : Yes
Delete leading and trailing silent blocks : No
Null samples used in CRC calculations : Yes
Used interface : Installed external ASPI interface
Gap handling : Appended to previous track
Used output format : User Defined Encoder
Selected bitrate : 768 kBit/s
Quality : High
Add ID3 tag : No
Command line compressor : E:\Program Files\Exact Audio Copy\Flac\flac.exe
Additional command line options : -8 -V -T "ARTIST=%a" -T "TITLE=%t" -T "ALBUM=%g" -T "DATE=%y" -T "TRACKNUMBER=%n" -T "GENRE=%m" -T "COMMENT=EAC FLAC -8" %s
TOC of the extracted CD
Track | Start | Length | Start sector | End sector
---------------------------------------------------------
1 | 0:00.37 | 6:52.13 | 37 | 30949
2 | 6:52.50 | 3:26.25 | 30950 | 46424
3 | 10:19.00 | 7:08.00 | 46425 | 78524
4 | 17:27.00 | 6:45.37 | 78525 | 108936
5 | 24:12.37 | 6:54.63 | 108937 | 140049
6 | 31:07.25 | 5:28.37 | 140050 | 164686
7 | 36:35.62 | 8:02.30 | 164687 | 200866
8 | 44:38.17 | 4:05.20 | 200867 | 219261
Track 1
Filename E:\Music\John Klemmer - Touch (MFSL UDCD 522)\01 - Touch.wav
Pre-gap length 0:00:02.37
Peak level 74.2 %
Track quality 100.0 %
Test CRC 23E77519
Copy CRC 23E77519
Track not present in AccurateRip database
Copy OK
Track 2
Filename E:\Music\John Klemmer - Touch (MFSL UDCD 522)\02 - Glass Dolphins.wav
Peak level 37.8 %
Track quality 100.0 %
Test CRC F17B56A9
Copy CRC F17B56A9
Track not present in AccurateRip database
Copy OK
Track 3
Filename E:\Music\John Klemmer - Touch (MFSL UDCD 522)\03 - Waterwheels.wav
Pre-gap length 0:00:01.12
Peak level 70.4 %
Track quality 99.9 %
Test CRC F643DEB0
Copy CRC F643DEB0
Track not present in AccurateRip database
Copy OK
Track 4
Filename E:\Music\John Klemmer - Touch (MFSL UDCD 522)\04 - Free Fall Lover.wav
Peak level 85.6 %
Track quality 100.0 %
Test CRC C15840C9
Copy CRC C15840C9
Track not present in AccurateRip database
Copy OK
Track 5
Filename E:\Music\John Klemmer - Touch (MFSL UDCD 522)\05 - Sleeping Eyes.wav
Pre-gap length 0:00:01.00
Peak level 73.4 %
Track quality 100.0 %
Test CRC 80680EDC
Copy CRC 80680EDC
Track not present in AccurateRip database
Copy OK
Track 6
Filename E:\Music\John Klemmer - Touch (MFSL UDCD 522)\06 - Body Pulse.wav
Pre-gap length 0:00:01.25
Peak level 82.7 %
Track quality 100.0 %
Test CRC 5E4EF076
Copy CRC 5E4EF076
Track not present in AccurateRip database
Copy OK
Track 7
Filename E:\Music\John Klemmer - Touch (MFSL UDCD 522)\07 - Tone Row Weaver.wav
Pre-gap length 0:00:02.25
Peak level 90.0 %
Track quality 100.0 %
Test CRC CD81459C
Copy CRC CD81459C
Track not present in AccurateRip database
Copy OK
Track 8
Filename E:\Music\John Klemmer - Touch (MFSL UDCD 522)\08 - Walk With Me My Love And Dream.wav
Pre-gap length 0:00:02.55
Peak level 40.0 %
Track quality 100.0 %
Test CRC C447CF01
Copy CRC C447CF01
Track not present in AccurateRip database
Copy OK
None of the tracks are present in the AccurateRip database
No errors occurred
End of status report
 
CUE
REM GENRE Jazz
REM DATE 1975
REM DISCID 6B0B6B08
REM COMMENT "ExactAudioCopy v0.99pb4"
PERFORMER "John Klemmer"
TITLE "Touch (MFSL UDCD 522)"
FILE "01 - Touch.wav" WAVE
TRACK 01 AUDIO
TITLE "Touch"
PERFORMER "John Klemmer"
PREGAP 00:00:37
INDEX 01 00:00:00
FILE "02 - Glass Dolphins.wav" WAVE
TRACK 02 AUDIO
TITLE "Glass Dolphins"
PERFORMER "John Klemmer"
INDEX 01 00:00:00
TRACK 03 AUDIO
TITLE "Waterwheels"
PERFORMER "John Klemmer"
INDEX 00 03:25:13
FILE "03 - Waterwheels.wav" WAVE
INDEX 01 00:00:00
FILE "04 - Free Fall Lover.wav" WAVE
TRACK 04 AUDIO
TITLE "Free Fall Lover"
PERFORMER "John Klemmer"
INDEX 01 00:00:00
TRACK 05 AUDIO
TITLE "Sleeping Eyes"
PERFORMER "John Klemmer"
INDEX 00 06:44:37
FILE "05 - Sleeping Eyes.wav" WAVE
INDEX 01 00:00:00
TRACK 06 AUDIO
TITLE "Body Pulse"
PERFORMER "John Klemmer"
INDEX 00 06:53:38
FILE "06 - Body Pulse.wav" WAVE
INDEX 01 00:00:00
TRACK 07 AUDIO
TITLE "Tone Row Weaver"
PERFORMER "John Klemmer"
INDEX 00 05:26:12
FILE "07 - Tone Row Weaver.wav" WAVE
INDEX 01 00:00:00
TRACK 08 AUDIO
TITLE "Walk With Me My Love And Dream"
PERFORMER "John Klemmer"
INDEX 00 07:59:50
FILE "08 - Walk With Me My Love And Dream.wav" WAVE
INDEX 01 00:00:00
См. также
[LP][24/96] John Klemmer - Touch
18:12
721
Нет комментариев. Ваш будет первым!