Поиск

(Smooth Jazz) Joe McBride - Texas Rhythm Club - 2000, APE (image + .cue), lossless

(Smooth Jazz) Joe McBride - Texas Rhythm Club - 2000, APE (image + .cue), lossless
Треклист:
Joe McBride - Texas Rhythm Club
Страна: USA
Жанр: Smooth Jazz
Год выпуска: 2000
Формат: APE (image + .cue)
Битрейт аудио: lossless
Продолжительность: 48:49
Трэклист:
1. Texas Rhythm Club
2. White Rock
3. Texas Twister
4. Howzit In Dallas?
5. Everything Remains The Same
6. On The Money
7. Lake O' The Pines
8. Lone Star Boogie
9. It's You
10. Hot Chili Pepper
11. Texas Blues Cruise
 
Файлы
Back.jpg
Disc.jpg
Front Back.jpg
Front.jpg
Joe McBride - Texas Rhythm Club(ape).cue
Joe McBride - Texas Rhythm Club.ape
Joe McBride - Texas Rhythm Club.cue
Joe McBride - Texas Rhythm Club.log
 
EAC Log
Exact Audio Copy V0.99 prebeta 4 from 23. January 2008
Отчёт EAC об извлечении, выполненном 29. января 2009, 16:39
Joe McBride / Texas Rhythm Club
Дисковод: _NEC DVD_RW ND-3550A Adapter: 1 ID: 0
Режим чтения : Достоверность
Использование точного потока : Да
Отключение кэша аудио : Да
Использование указателей C2 : Нет
Коррекция смещения при чтении : 48
Способность читать области Lead-in и Lead-out : Нет
Заполнение пропущенных сэмплов тишиной : Да
Удаление блоков с тишиной в начале и конце : Нет
При вычислениях CRC использовались нулевые сэмплы : Да
Интерфейс : Встроенный Win32-интерфейс для Win NT/2000
Выходной формат : Внутренние WAV-операции
Формат сэмплов : 44.100 Гц; 16 бит; стерео
TOC извлечённого CD
Трек | Старт | Длительность | Начальный сектор | Конечный сектор
---------------------------------------------------------------------
1 | 0:00.00 | 4:13.62 | 0 | 19036
2 | 4:13.62 | 3:45.53 | 19037 | 35964
3 | 7:59.40 | 3:48.22 | 35965 | 53086
4 | 11:47.62 | 4:31.28 | 53087 | 73439
5 | 16:19.15 | 4:15.47 | 73440 | 92611
6 | 20:34.62 | 4:18.38 | 92612 | 111999
7 | 24:53.25 | 4:25.20 | 112000 | 131894
8 | 29:18.45 | 4:17.25 | 131895 | 151194
9 | 33:35.70 | 3:52.17 | 151195 | 168611
10 | 37:28.12 | 4:13.58 | 168612 | 187644
11 | 41:41.70 | 4:35.10 | 187645 | 208279
12 | 48:49.05 | 18:39.28 | 219680 | 303632
Характеристики диапазона извлечения и сообщения об ошибках
Выбранный диапазон
Имя файла C:\Torrents\Joe McBride - Texas Rhythm Club\Joe McBride - Texas Rhythm Club.wav
Пиковый уровень 98.8 %
Качество диапазона 99.9 %
CRC копии D3DF8074
Копирование... OK
Ошибок не произошло
AccurateRip: сводка
Трек 1 точность не определена (достоверность 1) [D9C0E08F], AccurateRip вернул [A7EEC2DB]
Трек 2 точность не определена (достоверность 1) [94E0E73F], AccurateRip вернул [11CCF21B]
Трек 3 точность не определена (достоверность 1) [2D976982], AccurateRip вернул [CF3C1A87]
Трек 4 точность не определена (достоверность 1) [EE561B14], AccurateRip вернул [7D3E0D7C]
Трек 5 точность не определена (достоверность 1) [C85B2A07], AccurateRip вернул [AE0D1476]
Трек 6 точность не определена (достоверность 1) [415503EA], AccurateRip вернул [72A6C9CD]
Трек 7 точность не определена (достоверность 1) [5930EC52], AccurateRip вернул [B365638B]
Трек 8 точность не определена (достоверность 1) [7B6DE572], AccurateRip вернул [FA711B17]
Трек 9 точность не определена (достоверность 1) [16427EE5], AccurateRip вернул [05CF07F8]
Трек 10 точность не определена (достоверность 1) [851232C9], AccurateRip вернул [CACC22CE]
Трек 11 точность не определена (достоверность 1) [73DC6414], AccurateRip вернул [DE6F05E3]
Ни один трек не прошёл проверки на точность
В вашей базе может быть иной вариант штамповки диска
Конец отчёта
 
tau
Скачивание доступно после регистрации!!
Приватный:
Нет (DHT включён)
Размер:
302.93 Мб (317,646,996 байт) » файлов: 8
Участники:
0 раздают, 0 качают (0 участников всего)
Внешние участники:
1 раздают, 0 качают (1 участников всего) [ Обновить ]
11:53
10
Нет комментариев. Ваш будет первым!