Поиск

(Smooth Jazz) Jessy J - Tequila Moon 2008 - 2008, FLAC (image + .cue), lossless

(Smooth Jazz) Jessy J - Tequila Moon 2008 - 2008, FLAC (image + .cue), lossless
Треклист:
Jessy J - Tequila Moon 2008
Страна: USA
Жанр: Smooth Jazz
Год выпуска: 2008
Формат: FLAC (image + .cue)
Битрейт аудио: lossless
Продолжительность: 54 min
Трэклист:
1. Tequila Moon 4:36
2. Spanish Nights 3:44
3. Sin Ti/Without You 4:34
4. Mas Que Nada 5:04
5. Fiesta Velada 4:08
6. Poetry Man 3:36
7. Turquoise Street 4:03
8. PB 'n' J 3:04
9. Bésame Mucho 3:40
10. Running Away 3:51
11. Song for You 5:43
 
скрытый текст
Exact Audio Copy V0.99 prebeta 4 from 23. January 2008
Отчёт EAC об извлечении, выполненном 5. июня 2008, 18:44
Jessy J / Tequila Moon
Дисковод: LITE-ON DVDRW SHW-1635S Adapter: 5 ID: 0
Режим чтения : Достоверность
Использование точного потока : Да
Отключение кэша аудио : Да
Использование указателей C2 : Нет
Коррекция смещения при чтении : 6
Способность читать области Lead-in и Lead-out : Нет
Заполнение пропущенных сэмплов тишиной : Да
Удаление блоков с тишиной в начале и конце : Нет
При вычислениях CRC использовались нулевые сэмплы : Нет
Интерфейс : Встроенный Win32-интерфейс для Win NT/2000
Выходной формат : Пользовательский кодировщик
Выбранный битрейт : 768 kBit/s
Качество : Высокий
Добавление ID3-тэга : Нет
Утилита сжатия : C:\Program Files\Exact Audio Copy\FLAC\FLAC.EXE
Дополнительные параметры : -6 -V -T "ARTIST=%a" -T "TITLE=%t" -T "ALBUM=%g" -T "DATE=%y" -T "TRACKNUMBER=%n" -T "GENRE=%m" -T "COMMENT=%e" %s -o %d
TOC извлечённого CD
Трек | Старт | Длительность | Начальный сектор | Конечный сектор
---------------------------------------------------------------------
1 | 0:00.00 | 4:36.25 | 0 | 20724
2 | 4:36.25 | 3:44.71 | 20725 | 37595
3 | 8:21.21 | 4:34.67 | 37596 | 58212
4 | 12:56.13 | 5:04.11 | 58213 | 81023
5 | 18:00.24 | 4:08.57 | 81024 | 99680
6 | 22:09.06 | 3:36.23 | 99681 | 115903
7 | 25:45.29 | 4:03.50 | 115904 | 134178
8 | 29:49.04 | 3:04.71 | 134179 | 148049
9 | 32:54.00 | 3:40.25 | 148050 | 164574
10 | 36:34.25 | 3:51.15 | 164575 | 181914
11 | 40:25.40 | 5:43.01 | 181915 | 207640
Характеристики диапазона извлечения и сообщения об ошибках
Выбранный диапазон
Имя файла D:\Мои торренты\Jessy J - Tequila Moon 2008\Jessy J - Tequila Moon.wav
Пиковый уровень 100.0 %
Качество диапазона 100.0 %
CRC копии 885EFD29
Копирование... OK
Ошибок не произошло
AccurateRip: сводка
Трек 1 нет в базе данных
Трек 2 нет в базе данных
Трек 3 нет в базе данных
Трек 4 нет в базе данных
Трек 5 нет в базе данных
Трек 6 нет в базе данных
Трек 7 нет в базе данных
Трек 8 нет в базе данных
Трек 9 нет в базе данных
Трек 10 нет в базе данных
Трек 11 нет в базе данных
Ни одного трека нет в базе AccurateRip
Конец отчёта
Доп. информация: Label: Peak Records
Приватный:
Нет (DHT включён)
Размер:
285.61 Мб (299,481,445 байт) » файлов: 3
Участники:
0 раздают, 0 качают (0 участников всего)
Внешние участники:
--- [ Обновить ]
13:06
10
Нет комментариев. Ваш будет первым!