Поиск

(Smooth Jazz, Jazz-Funk) VA - Pro Jazz Volume 2 - 2005, FLAC (tracks+.cue), lossless

Треклист:
Various Artists - Pro Jazz Volume 2
Жанр: Smooth Jazz, Jazz-Funk
Год выпуска: 2005
Формат: FLAC (tracks + .cue)
Битрейт аудио: lossless
Трэклист:
1. Nicola Conte - Sea And Sand (3:57)
2. Cassandra Wilson - Fragile (4:35)
3. Gabin - La Maison (Di Battista's Dream) (4:58)
Featuring - Stefano Di Battista
4. Medeski Martin & Wood - Mami Gato (4:09)
5. Lemonada - Nayama (3:26)
6. Molly Johnson - Melody (3:45)
7. Erik Truffaz - Big Wheel (5:47)
Featuring (Vocals) - Nya
8. Troublemakers - Race Records (4:22)
Rap - Gift Of Gab, The
9. Soulive - One In Seven (5:17)
10. Soulive - Just A Phrase (4:47)
11. Stefon Harris And Blackout (12) - Until (6:21)
12. Takashi Matsunaga - Peace (5:17)
13. Joe Lovano - Don't Ever Leave Me (3:43)
14. Grant Green - A Time To Remember (Osunlade Remix) (4:43)
Remix - Osunlade
15. Marc Moulin - Silver (Who Stole The Groove?) (6:06)
Зарелизено на rutracker.org
и
Доп. информация:
 
Лог извлечения EAC
Отчёт EAC об извлечении, выполненном 18. февраля 2008, 7:30 для диска:
various artists / Pro Jazz Vol.2
Дисковод: PLEXTOR DVDR PX-760A Adapter: 1 ID: 0
Режим чтения: Достоверный (C2: нет, Точный поток: да, Отключение кэша: да)
Коррекция смещения при чтении: 30
Способность читать области Lead-in и Lead-out : Да
Выходной формат: C:\Program Files\FLAC\flac.exe (Пользовательский кодировщик)
320 kBit/s
Дополнительные параметры: -8 -V -T "ARTIST=%a" -T "TITLE=%t" -T "ALBUM=%g" -T "DATE=%y" -T "TRACKNUMBER=%n" -T "GENRE=%m" -T "COMMENT=EAC FLAC -8" %s
Другие параметры:
Заполнение пропущенных сэмплов тишиной : Да
Удаление блоков с тишиной в начале и конце : Нет
Встроенный Win32-интерфейс для Win NT/2000
Трек 1
Имя файла C:\APE\Pro Jazz\01 - Nicola Conte - Sea And Sand.wav
Пиковый уровень 98.8 %
Качество трека 99.9 %
CRC теста 07B1E748
CRC копии 07B1E748
Копирование... OK
Трек 2
Имя файла C:\APE\Pro Jazz\02 - Cassandra Wilson - Fragile.wav
Пиковый уровень 98.8 %
Качество трека 100.0 %
CRC теста C105B79E
CRC копии C105B79E
Копирование... OK
Трек 3
Имя файла C:\APE\Pro Jazz\03 - Gabin - La Maison feat. Stefano Di Batista.wav
Пиковый уровень 98.8 %
Качество трека 100.0 %
CRC теста ADC11463
CRC копии ADC11463
Копирование... OK
Трек 4
Имя файла C:\APE\Pro Jazz\04 - Medeski, Martin & Wood - Mami Gato.wav
Пиковый уровень 98.8 %
Качество трека 100.0 %
CRC теста 775BB895
CRC копии 775BB895
Копирование... OK
Трек 5
Имя файла C:\APE\Pro Jazz\05 - Lemonada - Nayma.wav
Пиковый уровень 98.8 %
Качество трека 99.9 %
CRC теста C2817E60
CRC копии C2817E60
Копирование... OK
Трек 6
Имя файла C:\APE\Pro Jazz\06 - Molly Johnson - Melody.wav
Пиковый уровень 98.8 %
Качество трека 100.0 %
CRC теста AB842045
CRC копии AB842045
Копирование... OK
Трек 7
Имя файла C:\APE\Pro Jazz\07 - Erik Fruffaz - Big Wheel feat. NYA.wav
Пиковый уровень 98.8 %
Качество трека 100.0 %
CRC теста 387DD614
CRC копии 387DD614
Копирование... OK
Трек 8
Имя файла C:\APE\Pro Jazz\08 - Troublemakers - Race Records feat. The Gift Of Gab From Blackalicious.wav
Пиковый уровень 98.8 %
Качество трека 99.9 %
CRC теста 44237C54
CRC копии 44237C54
Копирование... OK
Трек 9
Имя файла C:\APE\Pro Jazz\09 - Soulive - One In Seven.wav
Пиковый уровень 98.8 %
Качество трека 100.0 %
CRC теста 89BD631D
CRC копии 89BD631D
Копирование... OK
Трек 10
Имя файла C:\APE\Pro Jazz\10 - Slowhill - Just A Phrase.wav
Пиковый уровень 98.8 %
Качество трека 100.0 %
CRC теста C877DE97
CRC копии C877DE97
Копирование... OK
Трек 11
Имя файла C:\APE\Pro Jazz\11 - Stefon Harris & Blackout - Until.wav
Пиковый уровень 98.8 %
Качество трека 100.0 %
CRC теста A24DA5ED
CRC копии A24DA5ED
Копирование... OK
Трек 12
Имя файла C:\APE\Pro Jazz\12 - Takashi Matsunaga - Peace.wav
Пиковый уровень 98.8 %
Качество трека 100.0 %
CRC теста ED1A429D
CRC копии ED1A429D
Копирование... OK
Трек 13
Имя файла C:\APE\Pro Jazz\13 - Joe Lovano - Don't Ever Leave Me.wav
Пиковый уровень 98.8 %
Качество трека 100.0 %
CRC теста 69B6D067
CRC копии 69B6D067
Копирование... OK
Трек 14
Имя файла C:\APE\Pro Jazz\14 - Gramt Green - A Time To Remember (osunlade mix).wav
Пиковый уровень 98.8 %
Качество трека 100.0 %
CRC теста FEE72267
CRC копии FEE72267
Копирование... OK
Трек 15
Имя файла C:\APE\Pro Jazz\15 - Marc Moulin - Marc Moulin 0 Silver (Who Stole The Groove ).wav
Пиковый уровень 98.8 %
Качество трека 100.0 %
CRC теста 112F1BFB
CRC копии 112F1BFB
Копирование... OK
Ошибок не произошло
Конец отчёта
Вот решил раздать неплохой сборничек доставшийся мне как бонус на Горбушке, мож кому придется по душе Оставляйте отзывы
Приватный:
Нет (DHT включён)
Размер:
473.35 Мб (496,339,390 байт) » файлов: 18
Участники:
0 раздают, 0 качают (0 участников всего)
Внешние участники:
2 раздают, 1 качают (3 участников всего) [ Обновить ]
12:12
19
Нет комментариев. Ваш будет первым!