Поиск

(Smooth Jazz) George Howard - A Home Far Away - 1994, APE (image + .cue), lossless

Треклист:
George Howard - A Home Far Away
Жанр: Smooth Jazz
Год выпуска: 1994
Формат: APE (image + .cue)
Битрейт аудио: lossless
Продолжительность: 0:48:34:00
Трэклист:
1. Miracle
2. If you were mine
3. Doria
4. Until Tomorrow
5. You can make the story right
6. Grover's Groove
7. No ordinary love
8. A home far away
9. Renewal
 
Отчет EAC
Exact Audio Copy V0.99 prebeta 4 from 23. January 2008
Отчёт EAC об извлечении, выполненном 13. июня 2008, 11:20
George Howard / A Home Far Away
Дисковод: _NEC DVD_RW ND-3550A Adapter: 3 ID: 1
Режим чтения : Достоверность
Использование точного потока : Да
Отключение кэша аудио : Да
Использование указателей C2 : Нет
Коррекция смещения при чтении : 48
Способность читать области Lead-in и Lead-out : Нет
Заполнение пропущенных сэмплов тишиной : Да
Удаление блоков с тишиной в начале и конце : Нет
При вычислениях CRC использовались нулевые сэмплы : Да
Интерфейс : Встроенный Win32-интерфейс для Win NT/2000
Выходной формат : Внутренние WAV-операции
Формат сэмплов : 44.100 Гц; 16 бит; стерео
TOC извлечённого CD
Трек | Старт | Длительность | Начальный сектор | Конечный сектор
---------------------------------------------------------------------
1 | 0:00.33 | 4:59.00 | 33 | 22457
2 | 4:59.33 | 4:56.20 | 22458 | 44677
3 | 9:55.53 | 4:59.70 | 44678 | 67172
4 | 14:55.48 | 4:09.27 | 67173 | 85874
5 | 19:05.00 | 5:00.58 | 85875 | 108432
6 | 24:05.58 | 5:19.12 | 108433 | 132369
7 | 29:24.70 | 4:48.00 | 132370 | 153969
8 | 34:12.70 | 5:21.38 | 153970 | 178082
9 | 39:34.33 | 4:42.07 | 178083 | 199239
10 | 44:16.40 | 4:17.68 | 199240 | 218582
Характеристики диапазона извлечения и сообщения об ошибках
Выбранный диапазон
Имя файла E:\rutracker.org\George Howard - A Home Far Away (1994)(Jazz)\George Howard - A Home Far Away.wav
Пиковый уровень 100.0 %
Качество диапазона 100.0 %
CRC копии 7D186381
Копирование... OK
Ошибок не произошло
AccurateRip: сводка
Трек 1 нет в базе данных
Трек 2 нет в базе данных
Трек 3 нет в базе данных
Трек 4 нет в базе данных
Трек 5 нет в базе данных
Трек 6 нет в базе данных
Трек 7 нет в базе данных
Трек 8 нет в базе данных
Трек 9 нет в базе данных
Трек 10 нет в базе данных
Ни одного трека нет в базе AccurateRip
Конец отчёта
Приватный:
Нет (DHT включён)
Размер:
309.88 Мб (324,937,750 байт) » файлов: 8
Участники:
0 раздают, 0 качают (0 участников всего)
Внешние участники:
--- [ Обновить ]
13:08
3
Нет комментариев. Ваш будет первым!