Поиск

(Smooth Jazz,Fusion,Guitar) Earl Klugh - Move - 1994, FLAC (tracks+.cue), lossless

(Smooth Jazz,Fusion,Guitar) Earl Klugh - Move - 1994, FLAC (tracks+.cue), lossless
Треклист:
Earl Klugh - Move
Жанр: Smooth Jazz,Fusion,Guitar
Год выпуска диска: 1994
Производитель диска: [WB]USA
Аудио кодек: FLAC
Тип рипа: tracks+.cue
Битрейт аудио: lossless
Продолжительность: 51:59
Трэклист:
01 - Across the Sand - 5:08
02 - Move - 4:48
03 - Far from Home - 5:29
04 - Tiptoein' - 5:11
05 - Nightwalk - 6:18
06 - A Face in the Wind - 4:21
07 - Big Turtle River - 4:14
08 - The Highway Song - 5:19
09 - Winter Rain - 3:55
10 - Doin' It - 5:05
11 - Across the Sand, Part II - 2:10
Доп. информация:
Featuring:
Earl Klugh - guitar,mandolins and keyboards,organ
Greg Phillinganes - synthesizer bass and keyboards
Gene Dunlap - drums & percussion
Lorenzo"Spoons"Brown - percussion
Lawrense Fratangelo - percussion
David Spradley - piano
Albert Duncan - keyboards
Raymond Manzerolle - sax,wind controller
Ralphe Armstrong - bass
Jimmy Ali - bass
Chuck Silva - electric guitar
Perry Hughes - rhythm guitar
Randy Jacobs - rhythm guitar
Key Bullard,Eddy Bullard,D'Way Whitehead,Kymberli Wright,Kimme Horne - vocals
Kayla Parker,Parkes Stewart,Mary Thomas - additional vocals
Commissioned(Fred Hammond,Mitchell Jones,Karl Reid,Marvin Sapp) - vocals
Fred Hammond - vocal arrangement
Все мои альбомы-оригиналы.
 
скрытый текст
EAC extraction logfile from 23. November 2009, 2:05 for CD
Earl Klugh / Move
Used drive : LITE-ON CD-RW SOHR-5238S Adapter: 1 ID: 0
Read mode : Secure with NO C2, accurate stream, disable cache
Read offset correction : 6
Overread into Lead-In and Lead-Out : No
Used output format : C:\Program Files\MediaCoder\codecs\flac.exe (User Defined Encoder)
192 kBit/s
Additional command line options : ?8 ?V ?T "ARTIST=%a" ?T "TITLE=%t" ?T "ALBUM=%g" ?T "DATE=%y" ?T "TRACKNUMBER=%n" ?T "GENRE=%m" ?T "COMMENT=EAC FLAC ?8" %s
Other options :
Fill up missing offset samples with silence : Yes
Delete leading and trailing silent blocks : No
Installed external ASPI interface
Track 1
Filename F:\Torrents CD\Earl Klugh-Move-1994[WB]\01 - Across the Sand .wav
Pre-gap length 0:00:02.42
Peak level 95.9 %
Track quality 99.9 %
Test CRC 3918E38C
Copy CRC 3918E38C
Copy OK
Track 2
Filename F:\Torrents CD\Earl Klugh-Move-1994[WB]\02 - Move .wav
Pre-gap length 0:00:00.02
Peak level 99.6 %
Track quality 100.0 %
Test CRC FF317EB6
Copy CRC FF317EB6
Copy OK
Track 3
Filename F:\Torrents CD\Earl Klugh-Move-1994[WB]\03 - Far from Home .wav
Pre-gap length 0:00:00.82
Peak level 96.4 %
Track quality 100.0 %
Test CRC C1E5EE5B
Copy CRC C1E5EE5B
Copy OK
Track 4
Filename F:\Torrents CD\Earl Klugh-Move-1994[WB]\04 - Tiptoein' .wav
Pre-gap length 0:00:01.00
Peak level 95.7 %
Track quality 100.0 %
Test CRC 9F8CBE02
Copy CRC 9F8CBE02
Copy OK
Track 5
Filename F:\Torrents CD\Earl Klugh-Move-1994[WB]\05 - Nightwalk .wav
Pre-gap length 0:00:01.77
Peak level 96.3 %
Track quality 100.0 %
Test CRC 0B1E7FFE
Copy CRC 0B1E7FFE
Copy OK
Track 6
Filename F:\Torrents CD\Earl Klugh-Move-1994[WB]\06 - A Face in the Wind .wav
Pre-gap length 0:00:00.97
Peak level 95.4 %
Track quality 100.0 %
Test CRC 0FE20E0D
Copy CRC 0FE20E0D
Copy OK
Track 7
Filename F:\Torrents CD\Earl Klugh-Move-1994[WB]\07 - Big Turtle River .wav
Pre-gap length 0:00:01.80
Peak level 96.8 %
Track quality 99.9 %
Test CRC 30F13B69
Copy CRC 30F13B69
Copy OK
Track 8
Filename F:\Torrents CD\Earl Klugh-Move-1994[WB]\08 - The Highway Song .wav
Pre-gap length 0:00:01.42
Peak level 95.0 %
Track quality 100.0 %
Test CRC 3C34018D
Copy CRC 3C34018D
Copy OK
Track 9
Filename F:\Torrents CD\Earl Klugh-Move-1994[WB]\09 - Winter Rain .wav
Pre-gap length 0:00:00.16
Peak level 94.1 %
Track quality 99.9 %
Test CRC 5A16DF78
Copy CRC 5A16DF78
Copy OK
Track 10
Filename F:\Torrents CD\Earl Klugh-Move-1994[WB]\10 - Doin' It .wav
Pre-gap length 0:00:01.76
Peak level 97.7 %
Track quality 100.0 %
Test CRC 075251A7
Copy CRC 075251A7
Copy OK
Track 11
Filename F:\Torrents CD\Earl Klugh-Move-1994[WB]\11 - Across the Sand, Part II .wav
Pre-gap length 0:00:00.97
Peak level 97.1 %
Track quality 99.5 %
Test CRC 8C885A6E
Copy CRC 8C885A6E
Copy OK
No errors occured
End of status report
19:25
657
Нет комментариев. Ваш будет первым!