Поиск

(Smooth Jazz,Fusion) [CD] Chieli Minucci - Got it Goin' on ! - 2005, FLAC (image+.cue), lossless

(Smooth Jazz,Fusion) [CD] Chieli Minucci - Got it Goin' on ! - 2005, FLAC (image+.cue), lossless
Треклист:
Chieli Minucci / Got it Goin' on !
Жанр: Smooth Jazz,Fusion
Носитель: CD
Год издания: 2005
Аудиокодек: FLAC (*.flac)
Тип рипа: image+.cue
Битрейт аудио: lossless
Продолжительность: 60:49
Источник (релизер): my disc
Наличие сканов в содержимом раздачи: да
Треклист:
01. Stars In Your Eyes [0:04:54.21]
02. Got It Goin' On [0:04:50.23]
03. Good Times Ahead [0:05:38.10]
04. Love Is Always Young [0:05:53.48]
05. Chic [0:06:06.66]
06. Deeper Than Deep [0:06:04.53]
07. Destiny [0:08:12.13]
08. The Juice [0:04:48.32]
09. Denial [0:05:47.08]
10. Still Waiting [0:08:27.34]
11. 11 [0:00:06.23]
 
Лог создания рипа
Exact Audio Copy V1.0 beta 3 from 29. August 2011
Отчёт EAC об извлечении, выполненном 18. сентября 2014, 8:19
Chieli Minucci / Got It Goin' On!
Дисковод: TSSTcorpCDDVDW SH-224DB Adapter: 1 ID: 0
Режим чтения : Достоверность
Использование точного потока : Да
Отключение кэша аудио : Да
Использование указателей C2 : Нет
Коррекция смещения при чтении : 6
Способность читать области Lead-in и Lead-out : Нет
Заполнение пропущенных сэмплов тишиной : Да
Удаление блоков с тишиной в начале и конце : Нет
При вычислениях CRC использовались нулевые сэмплы : Да
Интерфейс : Встроенный Win32-интерфейс для Win NT/2000
Выходной формат : Пользовательский кодировщик
Выбранный битрейт : 768 kBit/s
Качество : Высокий
Добавление ID3-тега : Нет
Утилита сжатия : C:\Program Files\Exact Audio Copy\Flac\flac.exe
Дополнительные параметры : -V -8 -T "Date=%year%" -T "Genre=%genre%" %source%
TOC извлечённого CD
Трек | Старт | Длительность | Начальный сектор | Конечный сектор
---------------------------------------------------------------------
1 | 0:00.00 | 4:54.21 | 0 | 22070
2 | 4:54.21 | 4:50.23 | 22071 | 43843
3 | 9:44.44 | 5:38.10 | 43844 | 69203
4 | 15:22.54 | 5:53.48 | 69204 | 95726
5 | 21:16.27 | 6:06.66 | 95727 | 123242
6 | 27:23.18 | 6:04.53 | 123243 | 150595
7 | 33:27.71 | 8:12.13 | 150596 | 187508
8 | 41:40.09 | 4:48.32 | 187509 | 209140
9 | 46:28.41 | 5:47.08 | 209141 | 235173
10 | 52:15.49 | 8:27.34 | 235174 | 273232
11 | 60:43.08 | 0:06.23 | 273233 | 273705
Характеристики диапазона извлечения и сообщения об ошибках
Выбранный диапазон
Имя файла D:\lo$$le$$\C.Minucci'05\Chieli Minucci - Got It Goin' On!.wav
Пиковый уровень 96.5 %
Скорость извлечения 7.6 X
Качество диапазона 100.0 %
CRC теста 5E746284
CRC копии 5E746284
Копирование... OK
Ошибок не произошло
Конец отчёта
==== Контрольная сумма отчёта E2469696A2DC29255490ADF1C03FEB15B5CF4ED47964C3D8A541A31BE5C64043 ====
 
Об исполнителе (группе)
Американский гитарист Чили Минуччи родился в апреле 1958 г. в Хантингтоне, Ньюй-Йорк, в семье композитора и пианиста Ульпио Минуччи. Учиться играть на фортепиано мальчик начал в пятилетнем возрасте, позже переключившись на гитару. В 13 лет Минуччи присоединился к группе Taurus, с которой выступал три последующих года. В 1976 году юноша поступил в колледж в Нью-Йорке и играл в различных коллективах - фолк-поп трио Amethyst, фьюжн-рок группе The New Band, нью-уэйв образовании Fast Food, в Colombo, исполнявшем бразильскую музыку и фьюжн-квартете Gumbo.После окончания колледжа Минуччи осел в Нью-Йорке, в 1981-83 гг. выступая с Commotion, China Davis Band, Sapho,The B.B. & Q. Band и группой Лу Рида. В тот период он познакомился с венгерским перкуссионистом Джорджем Джинда, с которым они основали Special Delivery, позже переименованный в Special EFX, где Минуччи оставался вплоть до 1996 года. Первое время Special EFX записывался на GRP, позже было выпущено три компакт-диска под лэйблом JVC. Кроме того, Минуччи продюсировал пластинки и сочинял музыку для телевидения, выступал с Чакой Хан, Робертой Флэк, Анджеллой Бофилл. Как сольный исполнитель, во второй половине 90х записал несколько дисков для JVC.
По всем вопросам пишите личное сообщение пользователю M0p94ok.
06:57
254
Нет комментариев. Ваш будет первым!