Поиск

(Smooth Jazz, Fusion) Billy Cobham - Traveler - 1994, FLAC (tracks), lossless

(Smooth Jazz, Fusion) Billy Cobham - Traveler - 1994, FLAC (tracks), lossless
Треклист:
Billy Cobham - Traveler
Страна: USA
Жанр: Smooth Jazz, Fusion
Год выпуска: 1994
Формат: FLAC (tracks)
Битрейт аудио: lossless
Продолжительность: 1:07:36
Трэклист:
01 - Alfa Waves (8:43)
02 - All That Your Soul Provides (5:27)
03 - Balancing Act (6:44)
04 - What If (5:06)
05 - Dippin' The Biscuits In The Soup (9:27)
06 - Fragoline (8:18)
07 - Just One Step Away (4:32)
08 - Mushu Creole Blues (7:59)
09 - On The Inside Track (5:48)
10 - Soul Provider (5:32)
Доп. информация: Рип не мой, в комплекте cue, log, m3u, описание на английском, сканы обложки.
 
Лог
EAC extraction logfile from 14. December 2006, 19:34 for CD
Billy Cobham / The Traveler
Used drive : SAMSUNG CD-R/RW SW-240B Adapter: 3 ID: 1
Read mode : Secure with NO C2, accurate stream, disable cache
Read offset correction : 97
Overread into Lead-In and Lead-Out : No
Used output format : Internal WAV Routines
44.100 Hz; 16 Bit; Stereo
Other options :
Fill up missing offset samples with silence : Yes
Delete leading and trailing silent blocks : No
Installed external ASPI interface
Track 1
Filename F:\Seeds\Billy Cobham - The Traveler (1994) [FLAC]\01 - Alfa Waves.wav
Pre-gap length 0:00:02.42
Peak level 100.0 %
Track quality 99.9 %
Test CRC 1A115621
Copy CRC 1A115621
Copy OK
Track 2
Filename F:\Seeds\Billy Cobham - The Traveler (1994) [FLAC]\02 - All That Your Soul Provides.wav
Pre-gap length 0:00:01.10
Peak level 93.9 %
Track quality 100.0 %
Test CRC 84DFA702
Copy CRC 84DFA702
Copy OK
Track 3
Filename F:\Seeds\Billy Cobham - The Traveler (1994) [FLAC]\03 - Balancing Act.wav
Pre-gap length 0:00:02.02
Peak level 41.3 %
Track quality 100.0 %
Test CRC 3574C924
Copy CRC 3574C924
Copy OK
Track 4
Filename F:\Seeds\Billy Cobham - The Traveler (1994) [FLAC]\04 - What If.wav
Pre-gap length 0:00:02.06
Peak level 79.6 %
Track quality 99.9 %
Test CRC 3E3D9C9C
Copy CRC 3E3D9C9C
Copy OK
Track 5
Filename F:\Seeds\Billy Cobham - The Traveler (1994) [FLAC]\05 - Dippin' The Biscuits In The Soup.wav
Pre-gap length 0:00:01.53
Peak level 93.3 %
Track quality 100.0 %
Test CRC 33849B46
Copy CRC 33849B46
Copy OK
Track 6
Filename F:\Seeds\Billy Cobham - The Traveler (1994) [FLAC]\06 - Fragoline.wav
Peak level 93.8 %
Track quality 99.9 %
Test CRC 3F0D7871
Copy CRC 3F0D7871
Copy OK
Track 7
Filename F:\Seeds\Billy Cobham - The Traveler (1994) [FLAC]\07 - Just One Step Away.wav
Pre-gap length 0:00:01.00
Peak level 93.8 %
Track quality 99.9 %
Test CRC 19EE9B4E
Copy CRC 19EE9B4E
Copy OK
Track 8
Filename F:\Seeds\Billy Cobham - The Traveler (1994) [FLAC]\08 - Mushu Creole Blues.wav
Peak level 93.8 %
Track quality 99.9 %
Test CRC 18C1F76F
Copy CRC 18C1F76F
Copy OK
Track 9
Filename F:\Seeds\Billy Cobham - The Traveler (1994) [FLAC]\09 - On The Inside Track.wav
Peak level 92.0 %
Track quality 99.9 %
Test CRC 441570CC
Copy CRC 441570CC
Copy OK
Track 10
Filename F:\Seeds\Billy Cobham - The Traveler (1994) [FLAC]\10 - Soul Provider.wav
Peak level 94.7 %
Track quality 100.0 %
Test CRC 95E1D077
Copy CRC 95E1D077
Copy OK
No errors occured
End of status report
 
Спектрограммы


Скачивание доступно после регистрации!!
Приватный:
Нет (DHT включён)
Размер:
425.28 Мб (445,939,092 байт) » файлов: 19
Участники:
0 раздают, 0 качают (0 участников всего)
Внешние участники:
--- [ Обновить ]
11:16
8
Нет комментариев. Ваш будет первым!