Поиск

(Smooth-Jazz,Fusion,Bass) Norm Stockton- Tea In The Typhoon/feat.Gregg Bissonette,John Patitucci,Michael Manring/ - 2009, APE (image+.cue), lossless

Треклист:
Norm Stockton- Tea In The Typhoon/feat.Gregg Bissonette,John Patitucci,Michael Manring/
Жанр: Smooth-Jazz,Fusion,Bass
Год выпуска диска: 2009
Производитель диска: Sticktones Music/Canada/
Аудио кодек: APE
Тип рипа: image+.cue
Битрейт аудио: lossless
Продолжительность: 00:58:08
Трэклист:
1.At the behest of penelope&26
2.Close reach home
3.Sunday bloody sunday
4.Tea in the typhoon
5.Runway 19R
6....But i play one tv(i'm not fuzoid)
7.Send in the clowns
8.Grace once more
9.Rockefeller forest
10.Let me not forget
Доп. информация: Norm Stockton-bass
Featuring Musiciant:
Gregg Bissonette,Lincoln Blewster,Keith Felch,
Tony Guerrero,Michael Manring,Etienne Mbappe,
Rob Mullins,David Owens,John Patitucci,
Sachi Patitucci,Rob Rinderer,Kevin Rogers,Larry Williams.

Рип из личного архива.
 
Отчёт EAC
Exact Audio Copy V0.99 prebeta 4 from 23. January 2008
Отчёт EAC об извлечении, выполненном 3. июня 2010, 23:49
Norm Stockton / Tea In The Typhoon
Дисковод: _NEC DVD_RW ND-2510A Adapter: 1 ID: 0
Режим чтения : Достоверность
Использование точного потока : Да
Отключение кэша аудио : Да
Использование указателей C2 : Нет
Коррекция смещения при чтении : 48
Способность читать области Lead-in и Lead-out : Нет
Заполнение пропущенных сэмплов тишиной : Да
Удаление блоков с тишиной в начале и конце : Нет
При вычислениях CRC использовались нулевые сэмплы : Да
Интерфейс : Установленный внешний ASPI-интерфейс
Выходной формат : Внутренние WAV-операции
Формат сэмплов : 44.100 Гц; 16 бит; стерео
TOC извлечённого CD
Трек | Старт | Длительность | Начальный сектор | Конечный сектор
---------------------------------------------------------------------
1 | 0:00.00 | 5:18.16 | 0 | 23865
2 | 5:18.16 | 5:16.59 | 23866 | 47624
3 | 10:35.00 | 6:08.39 | 47625 | 75263
4 | 16:43.39 | 5:24.17 | 75264 | 99580
5 | 22:07.56 | 5:03.01 | 99581 | 122306
6 | 27:10.57 | 4:31.73 | 122307 | 142704
7 | 31:42.55 | 6:32.10 | 142705 | 172114
8 | 38:14.65 | 5:34.74 | 172115 | 197238
9 | 43:49.64 | 1:48.18 | 197239 | 205356
10 | 45:38.07 | 4:59.55 | 205357 | 227836
11 | 50:37.62 | 6:06.69 | 227837 | 255355
12 | 56:44.56 | 1:23.11 | 255356 | 261591
Характеристики диапазона извлечения и сообщения об ошибках
Выбранный диапазон
Имя файла E:\ПРОЕКТ\Norm Stockton-tea in the typhoon 2009\Norm Stockton - Tea In The Typhoon.wav
Пиковый уровень 98.5 %
Качество диапазона 100.0 %
CRC теста D848AA14
CRC копии D848AA14
Копирование... OK
Ошибок не произошло
AccurateRip: сводка
Трек 1 точность не определена (достоверность 1) [23774389], AccurateRip вернул [C47F6213]
Трек 2 точность не определена (достоверность 1) [2B3C1282], AccurateRip вернул [576E132B]
Трек 3 точность не определена (достоверность 1) [3211B336], AccurateRip вернул [6B030FA1]
Трек 4 точность не определена (достоверность 1) [44EA93BE], AccurateRip вернул [C3D30E8D]
Трек 5 точность не определена (достоверность 1) [27C1B3CC], AccurateRip вернул [8099D1BD]
Трек 6 точность не определена (достоверность 1) [072B5241], AccurateRip вернул [900EC285]
Трек 7 точность не определена (достоверность 1) [D93E79BD], AccurateRip вернул [1E295C5A]
Трек 8 точность не определена (достоверность 1) [977B0737], AccurateRip вернул [7970888C]
Трек 9 точность не определена (достоверность 1) [FBDD118D], AccurateRip вернул [91624B8E]
Трек 10 точность не определена (достоверность 1) [32CE193B], AccurateRip вернул [54B5AC0C]
Трек 11 точность не определена (достоверность 1) [A30D91AE], AccurateRip вернул [39181775]
Трек 12 точность не определена (достоверность 1) [3A2626C3], AccurateRip вернул [FC9317B3]
Ни один трек не прошёл проверки на точность
В вашей базе может быть иной вариант штамповки диска
Конец отчёта
16:31
573
Нет комментариев. Ваш будет первым!