Поиск

(Smooth-Jazz,Fusion,Bass) Frank Russell/feat.Wallace Roney,Darryl Jones,Henry Johnson,Corey Wilkes/ - Circle Without End - 2011, APE (image+.cue), lossless

(Smooth-Jazz,Fusion,Bass) Frank Russell/feat.Wallace Roney,Darryl Jones,Henry Johnson,Corey Wilkes/ - Circle Without End - 2011, APE (image+.cue), lossless
Frank Russell/feat.Wallace Roney,Darryl Jones,Henry Johnson,Corey Wilkes/ / Circle Without End
Жанр: Smooth-Jazz,Fusion,Bass
Страна-производитель диска: USA
Год издания диска: 2011
Издатель (лейбл): Sonic Portraits
Страна: USA
Аудиокодек: APE (*.ape)
Тип рипа: image+.cue
Битрейт аудио: lossless
Продолжительность: 01:13:33
Источник (релизер): Рип из личного архива
Наличие сканов в содержимом раздачи: да
Треклист:
1.Code MD
2.Her Name is Roz
3.Quick Pix
4.Desi in Sedona
5.Ladysmith (Black Mambazo)
6.I Would If Could
7.Noble Street Five
8.Orchards Groove
9.Put Up Your Dukes Interlude
10.Shirley's Prayer
11.Soul Carnival
12.Circle Without End
13.Tuesday Heartbreak
14.I Made a Promise
 
Лог создания рипа
Exact Audio Copy V0.99 prebeta 4 from 23. January 2008
Отчёт EAC об извлечении, выполненном 10. декабря 2011, 13:45
Frank Russell / Circle Without End
Дисковод: _NEC DVD_RW ND-2510A Adapter: 1 ID: 0
Режим чтения : Достоверность
Использование точного потока : Да
Отключение кэша аудио : Да
Использование указателей C2 : Нет
Коррекция смещения при чтении : 48
Способность читать области Lead-in и Lead-out : Нет
Заполнение пропущенных сэмплов тишиной : Да
Удаление блоков с тишиной в начале и конце : Нет
При вычислениях CRC использовались нулевые сэмплы : Да
Интерфейс : Встроенный Win32-интерфейс для Win NT/2000
Выходной формат : Внутренние WAV-операции
Формат сэмплов : 44.100 Гц; 16 бит; стерео
TOC извлечённого CD
Трек | Старт | Длительность | Начальный сектор | Конечный сектор
---------------------------------------------------------------------
1 | 0:00.00 | 6:49.46 | 0 | 30720
2 | 6:49.46 | 6:40.72 | 30721 | 60792
3 | 13:30.43 | 6:59.16 | 60793 | 92233
4 | 20:29.59 | 6:45.44 | 92234 | 122652
5 | 27:15.28 | 2:51.63 | 122653 | 135540
6 | 30:07.16 | 5:42.05 | 135541 | 161195
7 | 35:49.21 | 6:18.37 | 161196 | 189582
8 | 42:07.58 | 4:46.64 | 189583 | 211096
9 | 46:54.47 | 1:05.45 | 211097 | 216016
10 | 48:00.17 | 6:56.74 | 216017 | 247290
11 | 54:57.16 | 5:44.09 | 247291 | 273099
12 | 60:41.25 | 4:51.72 | 273100 | 294996
13 | 65:33.22 | 5:08.31 | 294997 | 318127
14 | 70:41.53 | 2:51.25 | 318128 | 330977
Характеристики диапазона извлечения и сообщения об ошибках
Выбранный диапазон
Имя файла E:\ПРОЕКТ\Frank Russell-Circle Without End 2011\Frank Russell - Circle Without End.wav
Пиковый уровень 98.9 %
Качество диапазона 100.0 %
CRC теста 9EEF4C34
CRC копии 9EEF4C34
Копирование... OK
Ошибок не произошло
AccurateRip: сводка
Трек 1 нет в базе данных
Трек 2 нет в базе данных
Трек 3 нет в базе данных
Трек 4 нет в базе данных
Трек 5 нет в базе данных
Трек 6 нет в базе данных
Трек 7 нет в базе данных
Трек 8 нет в базе данных
Трек 9 нет в базе данных
Трек 10 нет в базе данных
Трек 11 нет в базе данных
Трек 12 нет в базе данных
Трек 13 нет в базе данных
Трек 14 нет в базе данных
Ни одного трека нет в базе AccurateRip
Конец отчёта
 
Состав
Frank Russell-string and lead basses
Bob Long-fender rhodes
Greg Spero-organ
Vidjai Tellis-Naysk,Mike Logan-synths
Peter Lerner,Keyth Henderson,Henry Johnson-guitar
Peter Rothan-flute,sax
Jeff Morrow-vocals
Charles Heath,Robert Gates,Kahari Parker-drums
02:23
739
Нет комментариев. Ваш будет первым!