Поиск

(Smooth Jazz, Funk, Bass Guitar) Wayman Tisdale - The Very Best Of Wayman Tisdale - 2007, APE (image + .cue), lossless

Треклист:
Wayman Tisdale - The Very Best Of Wayman Tisdale
Страна: USA
Жанр: Smooth Jazz, Funk, Bass Guitar
Год выпуска: 2007
Формат: APE (image + .cue)
Битрейт аудио: lossless
Продолжительность: 54:48
Трэклист:
1. Power Forward 4:29
2. Jazz In You 3:29
3. In The Zone 4:58
4. Watch Me Play 4:42
5. You 4:46
6. Summer Breeze 6:41
7. Passion 5:09
8. Early Morning Drive 5:38
9. Starship 5:44
10. Amazing Grace 4:39
11. Circumstance 4:27
 
Files
Covers.ncd
tau.jpg
Wayman Tisdale - The Very Best Of Wayman Tisdale(ape).cue
Wayman Tisdale - The Very Best Of Wayman Tisdale.ape
Wayman Tisdale - The Very Best Of Wayman Tisdale.cue
Wayman Tisdale - The Very Best Of Wayman Tisdale.log
 
EAC Log
Exact Audio Copy V0.99 prebeta 4 from 23. January 2008
Отчёт EAC об извлечении, выполненном 26. апреля 2008, 9:33
Wayman Tisdale / The Very Best Of Wayman Tisdale
Дисковод: _NEC DVD_RW ND-3550A Adapter: 1 ID: 0
Режим чтения : Достоверность
Использование точного потока : Да
Отключение кэша аудио : Да
Использование указателей C2 : Нет
Коррекция смещения при чтении : 48
Способность читать области Lead-in и Lead-out : Нет
Заполнение пропущенных сэмплов тишиной : Да
Удаление блоков с тишиной в начале и конце : Нет
При вычислениях CRC использовались нулевые сэмплы : Нет
Интерфейс : Встроенный Win32-интерфейс для Win NT/2000
Выходной формат : Внутренние WAV-операции
Формат сэмплов : 44.100 Гц; 16 бит; стерео
TOC извлечённого CD
Трек | Старт | Длительность | Начальный сектор | Конечный сектор
---------------------------------------------------------------------
1 | 0:00.00 | 4:29.00 | 0 | 20174
2 | 4:29.00 | 3:29.72 | 20175 | 35921
3 | 7:58.72 | 5:00.48 | 35922 | 58469
4 | 12:59.45 | 4:42.20 | 58470 | 79639
5 | 17:41.65 | 4:46.05 | 79640 | 101094
6 | 22:27.70 | 6:41.02 | 101095 | 131171
7 | 29:08.72 | 5:09.05 | 131172 | 154351
8 | 34:18.02 | 5:39.23 | 154352 | 179799
9 | 39:57.25 | 5:44.35 | 179800 | 205634
10 | 45:41.60 | 4:39.30 | 205635 | 226589
11 | 50:21.15 | 4:27.22 | 226590 | 246636
Характеристики диапазона извлечения и сообщения об ошибках
Выбранный диапазон
Имя файла F:\Torrents\Wayman Tisdale\Wayman Tisdale - The Very Best Of Wayman Tisdale.wav
Пиковый уровень 97.7 %
Качество диапазона 100.0 %
CRC копии B55D40CA
Копирование... OK
Ошибок не произошло
AccurateRip: сводка
Трек 1 нет в базе данных
Трек 2 нет в базе данных
Трек 3 нет в базе данных
Трек 4 нет в базе данных
Трек 5 нет в базе данных
Трек 6 нет в базе данных
Трек 7 нет в базе данных
Трек 8 нет в базе данных
Трек 9 нет в базе данных
Трек 10 нет в базе данных
Трек 11 нет в базе данных
Ни одного трека нет в базе AccurateRip
Конец отчёта
 
tau
Приватный:
Нет (DHT включён)
Размер:
337.67 Мб (354,073,293 байт) » файлов: 6
Участники:
0 раздают, 0 качают (0 участников всего)
Внешние участники:
5 раздают, 1 качают (6 участников всего) [ Обновить ]
12:11
9
Нет комментариев. Ваш будет первым!